蓝光高清网

开启左侧

永恒神族 / The Eternals/永恒族4k.Eternals.2021.2160p.WEB-DL.x265.10bit.HDR.DDP5.1.Atmos-4k电影下载-27.30 GB

  [复制链接]

6 天前 26568 7

蓝鸟 发表于 2022-1-12 11:42:28 |阅读模式

蓝鸟 楼主

2022-1-12 11:42:28

永恒族
上映时间:2021年
类型:动作 科幻 冒险 
地区:美国 英国 
导演:赵婷
主演:安吉丽娜·朱莉 / 嘉玛·陈 / 理查德·麦登 / 萨尔玛·海耶克 / 基特·哈灵顿
画质标准:4K HDR  封装音轨:Dolby TrueHD 5.1 Dolby Atmos 
豆瓣评分:6.6分
本帖最后由 蓝鸟 于 2022-1-14 11:18 编辑
$ w7 \% `) j' H3 y: U; B
3 H. T9 [, D3 b1 R7 N简       介$ h8 v# B2 ]$ w2 c' W

+ ]* H8 N' q! w4 g) @  《永恒族》讲述漫威电影宇宙中一支令人兴奋的新的超级英雄团队,他们是古老的外星人,在地球上秘密生活了数千年。在《复仇者联盟4:终局之战》的事件之后,一场意外的悲剧使得他们不得不走出来,团结一心对抗人类最为古老的敌人:变异族。  u4 y+ g! {$ j8 ~0 o2 L" Z6 C
3 {* S! b: R! W
影片参数' j: |8 v/ e# s( Y0 r5 N) y
永恒神族 / The Eternals/永恒族4k.Eternals.2021.2160p.WEB-DL.x265.10bit.HDR.DDP5.1.Atmos-4k电影信息
5 J7 |& N% B9 B+ x* }* m; F& rVideo! _: u6 a! t1 C
ID : 1  Y$ K( K' p+ o  J+ _- t/ E
Format : HEVC, ^: ^$ i' H0 k1 R) H2 {
Format/Info : High Efficiency Video Coding
$ K7 K; T" N5 ^" ?- x& T+ O9 CFormat profile : Main 10@L5@High7 j! f8 ?8 v. w2 `, i' u3 h' B
HDR format : SMPTE ST 2086, HDR10 compatible' }& ?0 o0 C* }& _
Codec ID : V_MPEGH/ISO/HEVC0 Q, Z- M8 C  [# U7 N7 {
Duration : 2 h 35 min
' X+ p4 B6 u8 x9 \& TBit rate : 24.3 Mb/s& f: {. s. l7 W
Width : 3 840 pixels
' @, z% ]& z% Z7 s, _Height : 1 608 pixels  n4 w- m' G1 s( k. G8 I7 S, w6 F
Display aspect ratio : 2.40:1
& e: _! ~$ A4 h; IFrame rate mode : Constant
8 z/ c5 K) A3 k  iFrame rate : 23.976 (24000/1001) FPS0 m$ x6 e  [7 N6 B' g' R
Color space : YUV5 P" [3 a0 L1 ]# q
Chroma subsampling : 4:2:0 (Type 2)7 s3 J" K: s+ b0 L- [3 N
Bit depth : 10 bits
7 d! u& d( k% w9 @- K$ S; qBits/(Pixel*Frame) : 0.164+ ?" ^, F7 K5 v. ^6 ^
Stream size : 26.5 GiB (97%)
$ m( f' U1 m# C! J2 e# PDefault : Yes7 j: }1 F4 c9 ?- z
Forced : No( |0 Z# O$ u; w
Color range : Limited
% _4 v( I7 o+ c( a3 o, o2 v6 h( lColor primaries : BT.2020
; E* M% {, G$ A/ H. wTransfer characteristics : PQ
; }) n# H$ ?, y+ J/ }8 O0 h4 [Matrix coefficients : BT.2020 non-constant
; V  Q5 r1 e! \) S' y  x/ X; x; ]3 fMastering display color primaries : BT.2020
; V3 c- D# K! I6 RMastering display luminance : min: 0.0050 cd/m2, max: 1000 cd/m2
, o" f) C( t0 W* bMaximum Content Light Level : 397 cd/m2
2 q9 H! Y7 l2 A- Q' S8 g. p+ U0 ^: zMaximum Frame-Average Light Level : 139 cd/m2
8 v9 Q5 k$ h2 R0 {# u% X( R1 B
8 ~7 ^& q& b& |7 [" `6 ~Audio% A6 F- C' [/ h; W2 W! [& L
ID : 2
4 W/ [7 y0 b, @% cFormat : E-AC-3 JOC3 g& s& B7 k8 ^( e) x0 @
Format/Info : Enhanced AC-3 with Joint Object Coding/ k7 m, z: w5 ?/ J/ V4 f( a
Commercial name : Dolby Digital Plus with Dolby Atmos" i7 G& ?7 m" V% l0 s/ m, F$ ~/ Y
Codec ID : A_EAC3
6 n) I* f4 \% i- B1 S( SDuration : 2 h 35 min
  F$ n+ m) ^& ^$ T( GBit rate mode : Constant9 s) Z- h7 e. R! z
Bit rate : 768 kb/s
& p; a3 p3 [# X, S$ ^; YChannel(s) : 6 channels: B% v1 ~* ^/ C* G4 B& J: a8 |
Channel layout : L R C LFE Ls Rs2 h/ B- G3 {7 @
Sampling rate : 48.0 kHz
: p, x8 K( ^9 D! g0 i: p9 O. a) LFrame rate : 31.250 FPS (1536 SPF)  o; K  O9 _6 E( U$ ?9 b; b% G
Compression mode : Lossy
, Q# [9 P% ^) j1 kStream size : 856 MiB (3%): W, `4 ^4 s& ?# N$ i7 s* x+ N$ P5 }
Language : English  {+ g6 c' ~/ P# L
Service kind : Complete Main* f* A3 D* s" H6 x$ U
Default : Yes0 T& l, V' z) l! W3 h
Forced : No
2 A* W3 [3 ?8 O8 w& L! AComplexity index : 16
  r0 J5 g" ?" [Number of dynamic objects : 15
6 K" |$ G3 l5 @3 u1 X: Z/ b3 oBed channel count : 1 channel
# b. n5 G' w2 BBed channel configuration : LFE& T* H) ]* f2 _7 P
- W, a$ a' ?' A
Text #1
, f4 V) [$ t  `* ^) O# cID : 3
+ Q* w& @  C3 u. ~0 E- oFormat : UTF-8
5 j8 e: `9 O0 t  o! f% i7 fCodec ID : S_TEXT/UTF8
% S1 C0 H5 f# bCodec ID/Info : UTF-8 Plain Text) M5 Q% C" t: W  P" _, R
Duration : 2 h 33 min
& [0 k$ X1 b8 u2 y3 l  ~/ |Bit rate : 41 b/s
/ n4 e, P  c7 Y. \2 T' r/ L6 F2 ZCount of elements : 1784/ s0 r' `' |, P# b4 ~6 c
Stream size : 46.6 KiB (0%)7 S$ ?$ {" }3 C2 n# _: b
Language : English
5 A& T  o6 Z9 G( Y+ C$ Z3 ]Default : Yes9 W/ \7 @% M/ o. n
Forced : No) ?2 e4 g% _2 L& {' y  M2 T) Q
  l: W6 I3 z  i" E
Text #2
  B4 t$ \- L. v% F3 A7 ZID : 4+ g$ l8 u6 W' ~* Y. v( [7 E2 U
Format : UTF-8
, w3 j" W1 j! u8 r* wCodec ID : S_TEXT/UTF8: @! k5 N5 I9 I7 d$ _8 E
Codec ID/Info : UTF-8 Plain Text
- k7 K2 W& @, b' l( g4 zDuration : 2 h 33 min; U9 ?' s5 E$ `6 }. B$ d
Bit rate : 51 b/s
: \! f; N; Q3 Q1 Z- s: h& K' m8 Z% }Count of elements : 2210/ s3 x9 D; c+ t
Stream size : 58.2 KiB (0%)7 _( v# |+ _$ v$ O$ Z
Title : SDH/ v' W  T2 P  o# {0 H8 X
Language : English; G8 i3 o4 w  f9 J2 }$ W
Default : No
3 x1 s# V9 o* [6 r% ?% rForced : No8 Q% z2 X5 M  B5 n8 y
+ F. h6 f$ O* @3 [. d# ~! y6 e
Text #3. z5 [4 @2 ]6 j$ }
ID : 59 ^8 _& J' q8 V; Q# b, X
Format : UTF-8% K: [3 p2 Z# `/ ]2 f8 W/ t: g
Codec ID : S_TEXT/UTF8& P3 b7 d6 k1 u  p( J# a9 Q
Codec ID/Info : UTF-8 Plain Text
% s( ]3 V' l$ r/ `  f; xDuration : 2 h 35 min
9 g. z$ D! ?/ \  EBit rate : 41 b/s
/ p: G2 C8 X- D7 _4 q7 KCount of elements : 1645
' v6 H6 G% k7 {8 i/ E5 Z+ i4 n6 IStream size : 47.6 KiB (0%), \$ R/ S: i. P
Language : Spanish7 h  h. Z' M: h6 h- t! S3 B) E" O
Default : No6 ^. q+ V* `8 f# u6 L
Forced : No
# p9 l2 H. C) a' v0 s' ]) F' u+ h  |4 a2 B/ Z7 g( T
Text #4# f" g& a3 E) _6 d  ?1 a
ID : 6
1 X0 n7 E! q2 ~  ^3 g9 ?Format : UTF-8% Y& ?1 T9 \" i$ Y
Codec ID : S_TEXT/UTF8
8 ?& G' t: x' C  j; `Codec ID/Info : UTF-8 Plain Text$ t9 _7 h) K, b4 o- V% j1 A8 p  T
Duration : 2 h 35 min
& |9 f$ ^# t  PBit rate : 2 b/s
+ m! T9 I3 i& l$ f5 ZCount of elements : 116+ A: F" j5 ]2 r( Y( K& M1 \
Stream size : 3.13 KiB (0%)! X5 w& K  H, e7 n3 }, t
Title : FORCED1 M( C" d* N- l7 X; X% A' Y) H' z
Language : Spanish3 W* F! b6 M  T: N) I
Default : No; p. X  b: a0 n8 L0 E: _7 D
Forced : No
$ r9 g2 O, b: \1 E% N& j- C- ^+ n
蓝光高清网提示您 点击下方附件名称 即可开始下载6 R+ s! {8 o. A2 b0 v( H

% P5 H/ K! N( {! d多版本下载时请注意区分
1 P9 f  G' M4 |7 K1 v0 r- \" {
) [, {1 s" f/ t5 L4 ]7 v永恒神族 / The Eternals/永恒族4k.Eternals.2021.2160p.WEB-DL.x265.10bit.HDR.DDP5.1.Atmos-4k电影下载
* b$ Y7 s- G& ]6 \' Q$ B* }
3 U0 X+ a& M# [) D5 O2 ~3 d- ~永恒族4k.Eternals.2021.2160p.WEB-DL.x265.10bit.HDR.DDP5.1.Atmos【27.30 GB】
' U5 S9 |  N/ l* h% n5 {9 @# o 永恒族4k.Eternals.2021.2160p.WEB-DL.x265.10bit.HDR.DDP5.1.Atmos-NOGRP.torrent (34.78 KB)
加入蓝光高清网VIP会员  无限制下载本站所有资源---点这里

资源下载、资源播放、字幕使用、无法下载等常见问题---点这里
回复

使用道具 举报

全部回复7

15162769877手机认证 发表于 2022-1-12 18:59:52 来自手机

15162769877 沙发

2022-1-12 18:59:52

字幕怎么要密码?
回复 支持 反对

使用道具 举报

wangzhang3手机认证 发表于 2022-1-13 10:51:57 来自手机

wangzhang3 板凳

2022-1-13 10:51:57

樓主辛苦了,谢谢分享
回复 支持 反对

使用道具 举报

ggang1 发表于 2022-1-13 13:16:20

ggang1 地板

2022-1-13 13:16:20

好  不错的资源
回复 支持 反对

使用道具 举报

空白格的平凡手机认证 发表于 2022-1-14 14:25:35 来自手机

空白格的平凡 5#

2022-1-14 14:25:35

下载看看
0 l1 x; h5 A' `4 r$ v4 G7 \
回复 支持 反对

使用道具 举报

Azarias 发表于 2022-1-17 10:08:03 来自手机

Azarias 6#

2022-1-17 10:08:03

期待已久的片子  辛苦了
回复 支持 反对

使用道具 举报

AFB512 发表于 2022-1-17 18:33:10

AFB512 7#

2022-1-17 18:33:10

谢谢分享!
回复

使用道具 举报

梦想521 发表于 6 天前

梦想521 8#

6 天前

好资源
回复

使用道具 举报

发表回复

您需要登录后才可以回帖 登录 | 立即注册

返回列表 本版积分规则

  • 发帖

  • 在线客服

  • 微信

  • 客户端

  • 返回顶部