蓝光高清网

开启左侧

精灵旅社4:变身大冒险 4K.Hotel.Transylvania.4.Transformania.2022.2160p.AMZN.WEB-DL.x265.10bit.HDR10Plus.DDP5.1.Atmos-4k电影下载- 9.37 GB

[复制链接]

2022-1-14 11:08:23 5627 0

蓝鸟 发表于 2022-1-14 11:08:23 |阅读模式

蓝鸟 楼主

2022-1-14 11:08:23

精灵旅社4:变身大冒险
上映时间:2022年
类型:喜剧 动画 奇幻 冒险 
地区:美国 
导演:德里克·德莱蒙 / 詹妮弗·克鲁斯卡
主演:布赖恩·哈尔 / 安迪·萨姆伯格 / 赛琳娜·戈麦斯 / 凯瑟琳·哈恩 / 史蒂夫·布西密
画质标准:4K HDR  封装音轨:Dolby TrueHD 5.1 Dolby Atmos 
豆瓣评分:7.5分
简       介* b) n3 \( R- \9 ]4 j2 R

- L7 Y& ?' Z' ^( j" Q  《精灵旅社》系列大结局。一场意外使得精灵家族全员变身。为了避免身体永久互换,他们环游世界去寻找治疗方法,在人间开启了一段疯狂冒险,种种奇遇引发笑料不断。! f% {5 U7 L# p/ t$ R( b' L/ S
# m. [! T; `# F" X0 E5 G
影片参数  U; u/ r% R: }2 G- x
精灵旅社4:人间大冒险 / 鬼灵精怪大酒店:怪兽变错身(港) / 尖叫旅社:变形怪兽(台) / Hotel Transylvania 4/ 精灵旅社4:变身大冒险4K.Hotel.Transylvania.4.Transformania.2022.2160p.AMZN.WEB-DL.x265.10bit.HDR10Plus.DDP5.1.Atmos-4k电影信息
6 s, ]. i1 K- F! k% u; [Video9 a* F( J" h" O: {8 I6 X( s
ID : 1( }3 `, _+ v' u
Format : HEVC; E7 t  A! J. G" a* _- H% `
Format/Info : High Efficiency Video Coding
  m7 c& u# `: l* v: J2 C1 ]1 vFormat profile : Main 10@L5@Main+ x; j8 c6 c# d) |4 r% i$ D
HDR format : SMPTE ST 2094 App 4, Version 1, HDR10+ Profile B compatible/ v( F% e! |0 ~
Codec ID : V_MPEGH/ISO/HEVC) _# j- A1 Z& U) J
Duration : 1 h 27 min
; h5 O1 W, c; f) Q7 F0 I* eBit rate : 14.4 Mb/s# F7 t- i9 U. {% v3 L
Width : 3 840 pixels
; X' Q$ r& v/ m) x. BHeight : 2 080 pixels
: n5 t* S3 Q- `Display aspect ratio : 1.85:1
4 m# h- {# B3 WFrame rate mode : Constant
2 e7 q8 T: |. W  }5 m  Q2 dFrame rate : 23.976 (24000/1001) FPS
; b4 P* f, U& |' ?* A; A) L# P1 UColor space : YUV# E' O1 R6 C1 V, p" Q; b& V9 m
Chroma subsampling : 4:2:0  ?8 a2 h4 k! i8 d4 p- G2 ^
Bit depth : 10 bits* Z6 f+ V: T9 ~' |2 _
Bits/(Pixel*Frame) : 0.075
7 `5 ?" v8 o' @' U9 GStream size : 8.80 GiB (95%)3 _" s$ @; L8 K! U/ W7 H
Default : Yes
- K2 X9 o( L5 P8 g; A' x" eForced : No& @. f4 Z; Y' g8 R: w/ G1 L% b3 h1 R" ]
Color range : Limited% i# b6 ^- B( c
Color primaries : BT.2020; x3 u7 V% m$ [- J
Transfer characteristics : PQ
, c* Z7 Q: M# v% n) l& A% v' FMatrix coefficients : BT.2020 non-constant* Z( T  n2 ?; o. V  G2 K
Mastering display color primaries : Display P3  n: x) j+ ], Z% X7 r" R( {
Mastering display luminance : min: 0.0001 cd/m2, max: 1000 cd/m2
  `2 c2 m! ~0 Z& sMaximum Content Light Level : 429 cd/m2. ?7 g: O. R6 N! C1 [1 S' m
Maximum Frame-Average Light Level : 323 cd/m2" u, r8 c) S8 J) j* J
& g9 H! |  K0 ^+ V
Audio- d1 ]) ]7 ]2 Q, p+ u' L8 B
ID : 2
; j5 y2 G4 c' Y3 N; b& wFormat : E-AC-3 JOC
( i- F' x1 y5 U" a1 b( A; m9 gFormat/Info : Enhanced AC-3 with Joint Object Coding& [7 h1 |4 E4 o  q) P1 Q
Commercial name : Dolby Digital Plus with Dolby Atmos
% B) Y7 y: E. e; `Codec ID : A_EAC3) a+ H' [8 N6 U4 W& h* ^  h
Duration : 1 h 27 min. O# J: \5 W( R" z0 d
Bit rate mode : Constant
+ K+ l& A  F. J1 v- W' F$ OBit rate : 448 kb/s
1 W4 Z- B4 }/ W& k: Z- F! RChannel(s) : 6 channels
: A' b2 L- d! A& s  iChannel layout : L R C LFE Ls Rs8 D' l- B& u8 \6 `/ y4 w/ q% y
Sampling rate : 48.0 kHz
8 O9 \. J3 H; j; Z" MFrame rate : 31.250 FPS (1536 SPF)8 E. S3 z" m$ p+ `# }
Compression mode : Lossy
) y7 o0 s2 R9 X# Z# N1 E. YStream size : 280 MiB (3%)
4 z- j7 n' b2 N* WLanguage : English
7 ]3 d2 M" `# e" Q$ z0 QService kind : Complete Main
4 d2 x, R9 i0 w% g. f% M% iDefault : Yes
9 v9 \8 `  f& W9 oForced : No
1 O& k6 Y2 ]( YComplexity index : 16& H. X0 y7 L* l: m
Number of dynamic objects : 15. g3 n3 L9 P* H5 l( q4 R) B5 G
Bed channel count : 1 channel7 B! e2 _. t6 I& i" o5 v- U
Bed channel configuration : LFE: `2 y" K1 V: u0 W

! V/ N* }3 A* m# Z2 R+ AText #1
4 V$ w* b' X# R! x, y5 j9 AID : 3
3 X  t* ?$ W  s. R  KFormat : UTF-8
4 ?9 _1 w, m' z5 `# @Codec ID : S_TEXT/UTF8
5 i8 Y9 e# L$ i% r7 v/ ECodec ID/Info : UTF-8 Plain Text
9 \0 g% o% y( [4 ^8 j  eTitle : English! \" c+ `' C, E; G% O
Language : English( O3 ~, |# E  ]+ G/ L
Default : No
, v3 R" z8 H2 z) |7 GForced : No, c6 X& A3 h. k$ _: p5 C) R& d2 |
+ R9 M2 s* L5 B; z5 g5 K$ Z
Text #2
3 P1 B7 y% x- ~. w0 \4 L$ GID : 4
, N& l8 ^+ }5 f/ \. kFormat : UTF-8& H" Z9 H! U4 j! F7 c
Codec ID : S_TEXT/UTF8
7 F. N  T$ Z- v) L: [# n& rCodec ID/Info : UTF-8 Plain Text% g+ U( n% ^. m9 D7 Q1 q
Title : Arabic0 Q" z$ b" }% |3 b& j  ?! N
Language : Arabic
2 T% n9 e* L9 c# A5 c. ?2 KDefault : No
, Y' ]' e5 u; q  D" \9 u) `: E! NForced : No' u+ \7 l& W; N+ K1 a) K. e

/ j! J( k: T3 w9 i8 F" MText #3
/ ?) B0 H) k0 ]& uID : 5
# B0 O" G) ^! n5 W* G% q8 N1 L1 Z' UFormat : UTF-8
5 e4 f) w  h1 g5 O( n$ H7 C. \) {Codec ID : S_TEXT/UTF8, M, Y: c7 n4 h+ X: z
Codec ID/Info : UTF-8 Plain Text
, V8 `& L- l! s4 a3 m, K# Y1 |Title : Bulgarian (Bulgaria)' n1 t% y% |' Z! H* @' j
Language : Bulgarian1 y! Z- M  S1 A
Default : No
/ U2 ~4 Z# h6 K- n5 q0 p* i3 eForced : No/ I( p6 h/ D- v# ?' A/ u7 W4 h

2 A& a2 l5 |9 M7 z5 e0 `Text #4. s+ \* i8 m7 O1 {) l: j: g
ID : 67 V" E  l. w! w( v1 @( J: B
Format : UTF-83 L! T+ M, r, t
Codec ID : S_TEXT/UTF8
3 X" K% A5 Z: {0 H6 ^Codec ID/Info : UTF-8 Plain Text
$ Q4 Z+ M  R" r3 c0 aTitle : Catalan (Spain)$ t: B+ C# s! B9 K
Language : Catalan
: s  b( O' \; `0 Y4 f- N7 L4 R. u! HDefault : No6 |- m1 q- p3 F- P8 b9 G. z7 B
Forced : No( C0 J1 p$ s) U1 x4 a% n

  W# ^0 |: [, A! F! K4 a& DText #5, U* K2 a( X+ i' k0 s& h% V
ID : 70 A5 K; r& z7 W  L) v
Format : UTF-8" V4 ]' \. g& O! h+ s: X
Codec ID : S_TEXT/UTF8
/ H+ e, j4 A' `8 S* H% L0 x0 KCodec ID/Info : UTF-8 Plain Text- I. N4 ~$ F0 Q: Z4 Q
Title : Chinese Simplified
( B, E- {* A* h2 y8 ~) c) QLanguage : Chinese
" n1 e+ Q5 n' Q; r# I+ ~- V$ H8 FDefault : No
1 h2 R; @' m+ i, E* I/ dForced : No/ K6 _0 ]5 y# d  L7 _6 V

. p( u5 }6 H0 F! wText #6
/ F2 n! O) f6 Y4 N! C: E( b9 B9 \ID : 8
: K2 U% \9 s& }0 b! v' x5 |1 `Format : UTF-8/ `* I: p6 a5 Q+ S( Q
Codec ID : S_TEXT/UTF8' u( K/ ]4 s! E) ?; e. \( Z  G
Codec ID/Info : UTF-8 Plain Text
8 _4 P5 s0 ~$ s) xTitle : Chinese Traditional
& p) ~# A/ B* ]! N0 U& CLanguage : Chinese
) p7 o. Q" A; LDefault : No4 K% ?$ _# T7 v2 `7 [; o+ E9 a- X
Forced : No
5 h0 h2 Z; S: Q3 G/ Q, D
蓝光高清网提示您 点击下方附件名称 即可开始下载
3 r7 W2 G; o" e4 T. Q3 j' j) P: Y+ V6 S, p+ u
精灵旅社4:人间大冒险 / 鬼灵精怪大酒店:怪兽变错身(港) / 尖叫旅社:变形怪兽(台) / Hotel Transylvania 4/ 精灵旅社4:变身大冒险4K.Hotel.Transylvania.4.Transformania.2022.2160p.AMZN.WEB-DL.x265.10bit.HDR10Plus.DDP5.1.Atmos-4K电影下载  b2 o; H' D. {' V+ Y  z) c
3 _* \1 U& B- q4 A( Z" W/ \' ~9 b, m: X
精灵旅社4:变身大冒险4K.Hotel.Transylvania.4.Transformania.2022.2160p.AMZN.WEB-DL.x265.10bit.HDR10Plus.DDP5.1.Atmos【自带中字】【9.37 GB】1 H4 L$ p" p- v' a+ r9 |& B. T
精灵旅社4:变身大冒险4K.Hotel.Transylvania.4.Transformania.2022.2160p.AMZN.WEB-DL.x265.10bit.HDR10Plus.DDP5.1.Atmos-NAISU.torrent (24.28 KB)
加入蓝光高清网VIP会员  无限制下载本站所有资源---点这里

资源下载、资源播放、字幕使用、无法下载等常见问题---点这里
回复

使用道具 举报

发表回复

您需要登录后才可以回帖 登录 | 立即注册

返回列表 本版积分规则

  • 发帖

  • 在线客服

  • 微信

  • 客户端

  • 返回顶部