蓝光高清网

开启左侧

麦克白的悲剧 The.Tragedy.of.Macbeth.2021.2160p.ATVP.WEB-DL.x265.10bit.HDR.DD5.1.Atmos-4k电影下载-17.90GB

[复制链接]

7 天前 2971 3

蓝鸟 发表于 2022-1-14 11:17:12 |阅读模式

蓝鸟 楼主

2022-1-14 11:17:12

麦克白的悲剧
上映时间:2021年
类型:剧情 
地区:美国 
导演:乔尔·科恩
主演:丹泽尔·华盛顿 / 弗兰西斯·麦克多蒙德 / 阿历克斯·哈赛尔 / 博迪·卡维尔 / 布莱丹·格里森
画质标准:4K HDR  封装音轨:Dolby TrueHD 5.1 
豆瓣评分:7.8分
简       介5 a" g. X6 f/ M
: h! U3 a) u! J0 G: ~
  影片以华盛顿饰演的麦克白为主线,他被三个女巫说服,认为自己注定要成为苏格兰国王。他和野心勃勃的妻子麦克白夫人(麦克多蒙德饰)一起,开始把预言变成现实……结果是大量的鲜血、背叛和死亡。格里森饰演国王邓肯,米尔林饰演邓肯的儿子马尔科姆,霍金斯饰演麦克达夫。布鲁诺·德尔邦内尔([醉乡民谣])担任摄影师。5 }) e/ N- T8 L/ I0 }0 u

+ j' t1 G2 Q) V8 Q% _

, e# b1 D9 L% b: t/ L影片参数
( I5 t( T. N+ ]# y9 x8 u2 `* ~$ {% j) ~9 S9 C% @

5 M; U* W0 L! e; W: n9 \) z9 x0 E  影片以华盛顿饰演的麦克白为主线,他被三个女巫说服,认为自己注定要成为苏格兰国王。他和野心勃勃的妻子麦克白夫人(麦克多蒙德饰)一起,开始把预言变成现实……结果是大量的鲜血、背叛和死亡。格里森饰演国王邓肯,米尔林饰演邓肯的儿子马尔科姆,霍金斯饰演麦克达夫。布鲁诺·德尔邦内尔([醉乡民谣])担任摄影师。
! B( O: I2 d! T: `; r1 R$ U. z  J5 D' l# Z8 O8 O- X3 ~

0 q8 l1 y  e# J3 U! c获奖情况
9 w. s1 G; g3 r. O# [, H2 b  第79届金球奖 ?(2022). T: o; |7 Z' @
  电影类剧情片最佳男主角(提名) 丹泽尔·华盛顿+ `4 o5 o1 H8 i& Q: P
  1 R$ t) a1 m2 y0 p8 w
  第28届美国演员工会奖 ?(2022)1 ?9 u) _& o9 n2 n+ W( H
  电影奖最佳男主角(提名) 丹泽尔·华盛顿
' A" h4 u  y$ q0 Q  % i: j6 Z2 g* m$ |- B4 G9 {
  第87届纽约影评人协会奖 ?(2021)+ `! ~/ z9 F) r" S3 x8 b
  最佳女配角 凯瑟琳·亨特
3 R5 [" f3 L9 m7 K1 |6 w5 `% C1 ^) _* A
影片参数& `1 u6 G, W7 d! G
Video* {8 U2 f% l7 k3 R7 A5 S: F
ID                                       : 10 y. Q5 u8 r) {" g# {8 Z, B
Format                                   : HEVC# {1 i2 X' O, H/ @3 r7 p
Format/Info                              : High Efficiency Video Coding
7 q2 n+ P6 R. }9 OFormat profile                           : Main [email protected]@High
' Q/ [. d% n) e9 R6 dHDR format                               : SMPTE ST 2086, HDR10 compatible
* f4 d1 e4 `1 Y; r( j6 O5 WCodec ID                                 : V_MPEGH/ISO/HEVC! _' a; K+ A* _2 a2 r
Duration                                 : 1 h 45 min6 B* x1 U( S! l: D
Bit rate                                 : 23.6 Mb/s0 _* v8 D% o5 K; V7 q/ J
Width                                    : 2 956 pixels& s6 R4 c; o0 s! _2 G2 @8 u0 ^" f; P" O
Height                                   : 2 160 pixels
5 ~% C# d4 m- {+ s: J3 {& y( XDisplay aspect ratio                     : 4:3
5 O/ s; j( n$ L) q. j* _' UFrame rate mode                          : Constant9 p  h* h; `: M* ]4 a1 U& W4 e% h
Frame rate                               : 23.976 FPS( M4 V6 v" N. e( `
Color space                              : YUV
% q7 F7 L8 k6 {" eChroma subsampling                       : 4:2:0 (Type 2)# }6 J0 [# t( `6 |- n  T
Bit depth                                : 10 bits! V3 o. T# d8 h2 M
Bits/(Pixel*Frame)                       : 0.154: {- d( X" A( z* m& I
Stream size                              : 17.3 GiB (97%)
8 `/ J1 |1 T0 E# t: cLanguage                                 : English
7 [6 W" w! X2 F5 P: j0 [2 WDefault                                  : Yes
3 W) u% W  n9 f9 R# c. xForced                                   : No
1 `  I1 n9 e7 W, r  v) z, ZColor range                              : Limited
( C' Y% e% q/ K* X9 ]1 I( lColor primaries                          : BT.2020
: a. H' _/ X  Z, D' Z: L5 M- zTransfer characteristics                 : PQ
( p# Y3 @( j0 v$ G/ iMatrix coefficients                      : BT.2020 non-constant* _# `2 m( R# X( t* L% m8 A
Mastering display color primaries        : Display P3- X; w  x/ w8 Z3 x- m5 q
Mastering display luminance              : min: 0.0050 cd/m2, max: 1000 cd/m2
1 j6 h" I: _% R5 oMaximum Content Light Level              : 760 cd/m2! H5 a" w$ n! u& K5 J" B
Maximum Frame-Average Light Level        : 207 cd/m2
; W0 E7 r3 a3 d: r7 |+ u9 lAudio  R  S7 n" Z. D, d8 j
ID                                       : 2/ I! V' P' j4 Y; a6 K$ |$ o4 R
Format                                   : E-AC-3 JOC4 O4 @7 l' Z8 s. I0 T8 C3 K- N
Format/Info                              : Enhanced AC-3 with Joint Object Coding2 K. E# ?8 x' G; N9 Y
Commercial name                          : Dolby Digital Plus with Dolby Atmos
; Q6 O2 y1 d9 W0 z+ ~9 D3 {Codec ID                                 : A_EAC37 O9 M9 Q+ O0 M; U7 E
Duration                                 : 1 h 45 min. [7 C  C% [, F2 ?& w
Bit rate mode                            : Constant
4 g# e3 g( [5 y9 S+ J. R0 uBit rate                                 : 768 kb/s
+ h7 N8 F% L8 M( w3 }9 W' y3 TChannel(s)                               : 6 channels* ]& F, r$ D  d: V5 M. l
Channel layout                           : L R C LFE Ls Rs
7 Z) J" b( G# {! [* `% D) |/ N; RSampling rate                            : 48.0 kHz: \9 @  ~3 L- Y* P5 Z$ b
Frame rate                               : 31.250 FPS (1536 SPF)
; J" h) x* k$ k9 k" yCompression mode                         : Lossy
, N" X6 Y+ S) W- ^  ~7 SStream size                              : 578 MiB (3%)
; n2 @# ^8 n! v& TLanguage                                 : English0 t6 ^3 m7 l5 X4 E* a7 O  p
Service kind                             : Complete Main& V. c# f$ M  y; T
Default                                  : Yes% F9 R$ A: K8 I' b% x& n
Forced                                   : No1 X4 |, P7 \& v7 c- U
Complexity index                         : 16
9 Y! v3 X( q0 ~  FNumber of dynamic objects                : 15+ b, J) r! @* b" F# ?
Bed channel count                        : 1 channel  k; e8 w% G6 k+ b9 ]" m
Bed channel configuration                : LFE
+ J! ~; a2 z" Z) g3 o, JText #19 G% V) {; B( g# S( V; l
ID                                       : 3
- i! X5 k( g# n+ Z% }) p, vFormat                                   : UTF-8! d4 @' s* i8 ~0 K. E: L  S
Codec ID                                 : S_TEXT/UTF8
8 F2 z- H. d% F0 J$ L4 aCodec ID/Info                            : UTF-8 Plain Text/ u# g# S3 o: Y- C. |% A; [- D
Duration                                 : 1 h 39 min* |3 z; d6 T2 C
Bit rate                                 : 75 b/s
7 J* f  r* b9 R% ]! gCount of elements                        : 13465 r& g1 w/ u& s3 k# ~
Stream size                              : 55.4 KiB (0%)
' w5 x2 N' z5 y; A4 Y' XLanguage                                 : English
  q' d4 m3 s5 B0 j# @" WDefault                                  : No- h/ _- I0 Z3 K% x7 q/ y
Forced                                   : No
8 G: ?# S( C7 V  ^! AText #2
; {  J9 w/ V  {( q4 z. BID                                       : 4
- ^/ r0 D7 b2 G2 j- Q1 I. Y- qFormat                                   : UTF-88 ~1 t7 S! K. j, i3 e; D
Codec ID                                 : S_TEXT/UTF8
) I% L* q' o9 b; I) yCodec ID/Info                            : UTF-8 Plain Text$ Z6 }# s- k" ~' W' n/ t- z/ {* l
Duration                                 : 1 h 41 min
/ |0 _6 d. b# e9 ]& }3 C+ g4 l9 R  pBit rate                                 : 80 b/s$ l* a* Q& D; E$ U3 b6 f( A$ I
Count of elements                        : 1487$ d/ a+ o( A( _) B- q5 v6 {8 F
Stream size                              : 60.0 KiB (0%)
0 Z# \% a/ \# `0 ]Title                                    : SDH0 ~: _" y* |3 g  C& d+ C
Language                                 : English" V* P' R0 Q2 K( R- {
Default                                  : No# A8 l/ u2 p0 F& r
Forced                                   : No
7 L' ?: Q7 R$ GText #3
. T/ Z' @  R1 V. [/ NID                                       : 5
2 K0 h3 b% k' |( _Format                                   : UTF-81 t+ Z6 t& k6 {  j- k  |
Codec ID                                 : S_TEXT/UTF8
% [" \- y4 T7 X) I( V! u# m, ICodec ID/Info                            : UTF-8 Plain Text3 ]1 r" M" j( O0 k$ |
Duration                                 : 1 h 44 min
9 \) r; s3 M$ P$ m; TBit rate                                 : 95 b/s
4 M. I* X. X& [# ?, TCount of elements                        : 1349
* S  O7 n. v! T: p& qStream size                              : 73.3 KiB (0%): R8 H5 Z* T7 y' o) L) R" N
Language                                 : Arabic, q5 j' C1 r: r5 _
Default                                  : No7 K) L" m# B. U: f1 i
Forced                                   : No
% i# k5 @6 c7 H8 J( e/ H; wText #4
1 j) _+ k: Z  d; k2 YID                                       : 6( v: O* O; @5 P. F  j
Format                                   : UTF-8
. S8 q8 ]  Y% d7 M3 g2 {. T! wCodec ID                                 : S_TEXT/UTF8
- i2 h) ~9 f% z! I* V  z% uCodec ID/Info                            : UTF-8 Plain Text
! w! Q- j* P2 S* LDuration                                 : 1 h 44 min, w& R0 f% N- }% C; Z" d' y* ~
Bit rate                                 : 112 b/s# R2 T, p4 g) ?  G6 o; e
Count of elements                        : 1266
, d/ B" \4 H3 k, k  B2 cStream size                              : 86.3 KiB (0%)
& ^: R% X, y# ?- G: V7 MLanguage                                 : Bulgarian
  B$ _* [/ s0 }6 @7 ?Default                                  : No
1 J! g( z6 U* q+ M9 `+ h2 FForced                                   : No
. \/ c2 h' i. I2 sText #5/ k! s0 U  G0 m. {+ X9 f, Y
ID                                       : 7% z, G. {) Z8 k9 x0 v8 a  U
Format                                   : UTF-84 ^  W3 {" U# q. ]+ N
Codec ID                                 : S_TEXT/UTF8
1 I6 M& T7 `: ~7 u/ ~. }Codec ID/Info                            : UTF-8 Plain Text
& F# B$ _$ Y; G, Z4 pDuration                                 : 1 h 44 min
) {9 I* F/ v8 RBit rate                                 : 67 b/s) A! x) Q& i3 x# m8 k+ j
Count of elements                        : 13494 P- k  R8 l5 P
Stream size                              : 51.7 KiB (0%)8 H, t% Z/ k2 f3 X4 j' j1 W5 \8 _
Title                                    : Simplified
6 W1 G. G# \5 m+ S9 t* |! j. D, P  gLanguage                                 : Chinese* `/ I1 t( t. J2 ~0 U. w
Default                                  : No
4 o. E2 j+ Q. g2 lForced                                   : No
* o4 V8 r6 O) I" u: y3 ?. @Text #6$ @3 \# c  e$ u( ]
ID                                       : 8
( a' F$ _5 C- `' g# {* ~Format                                   : UTF-8
+ h, e# m: V) c+ FCodec ID                                 : S_TEXT/UTF8) Q! d5 Y4 R; n; a3 s
Codec ID/Info                            : UTF-8 Plain Text
3 L1 a; {  ]# i8 _Duration                                 : 1 h 44 min
- Z& n* S. Y, s- k( u% \Bit rate                                 : 61 b/s* O) ^: ?, f" ]* T9 i; y
Count of elements                        : 1350
% b9 m/ H& `, h% g: XStream size                              : 47.0 KiB (0%)
8 c, L' y+ P/ }. {: ~) ~Title                                    : Traditional
# J9 Y2 A; a8 [" j. t8 \Language                                 : Chinese
7 t) X9 U  l+ w9 E# oDefault                                  : No; j/ ]* R3 S- a, C* j
Forced                                   : No* N, j: R- y% T+ `4 G/ _
Text #7; B, }* d: d( {5 I
ID                                       : 9
% E# E* U: e, |7 f0 l: i2 i* s- xFormat                                   : UTF-8
9 z9 B( x. r, L+ MCodec ID                                 : S_TEXT/UTF8
; t% i  ^+ y1 \! s2 y$ M6 b& ]0 \: o. UCodec ID/Info                            : UTF-8 Plain Text* l) m- W% q* I, z5 R6 N3 n
Duration                                 : 1 h 44 min
8 s* ^+ [) x3 T7 `7 Z: W, RBit rate                                 : 62 b/s
1 a% _7 L- X* W& RCount of elements                        : 1279
4 Y( f, a2 |& _$ `8 uStream size                              : 48.0 KiB (0%)+ l$ f  |: k  I' w( u- |  f8 _
Language                                 : Czech6 e3 N: e! L, }  C, ]  h, h) }5 d
Default                                  : No
, P% D- A; v; J7 X- h* Z: {# DForced                                   : No' V' a& Y& X$ f: q3 F" I; t* N+ p
Text #8+ }, A' H/ m& \# W
ID                                       : 10* U" y/ t/ L; m; z
Format                                   : UTF-8
# A! j2 _+ H3 y( ACodec ID                                 : S_TEXT/UTF8" y) m6 R0 A9 w, X, R
Codec ID/Info                            : UTF-8 Plain Text
: E2 S9 ]4 v' X  v+ ]Duration                                 : 1 h 44 min
1 F, @# V; ~. i" U8 nBit rate                                 : 69 b/s: g7 O( e$ m8 P& H
Count of elements                        : 1281* m: E6 K6 A6 u" s
Stream size                              : 53.1 KiB (0%)
4 G' _! x; t. g9 b0 q% e& w- q. {Language                                 : Danish4 b, X& c# E: J
Default                                  : No
7 r: X/ E* v- l, u0 ]8 ^Forced                                   : No
; ]) t/ c$ e; m2 O  I6 NText #9
9 G9 t  t  l4 BID                                       : 11
% O( S5 h) G% O, n; q6 F& HFormat                                   : UTF-8. z1 @- s! ^9 M) I4 Q
Codec ID                                 : S_TEXT/UTF8) a% y3 I) p) D6 Q& l0 I+ \* l' q. K
Codec ID/Info                            : UTF-8 Plain Text8 S8 R6 P0 R4 v$ P9 b4 u
Duration                                 : 1 h 44 min
2 o- E- G6 f0 q% l) SBit rate                                 : 71 b/s; P( {7 |3 t; s- v/ G+ w
Count of elements                        : 13546 A$ Y9 u* L0 v5 k. v4 y- G+ h) ~
Stream size                              : 54.7 KiB (0%)9 M1 g; r' h3 Z
Language                                 : German
9 x+ _% c) c" Q2 C6 B2 jDefault                                  : No
' G9 t/ l/ e0 Y" M" O4 g5 g$ t; ?Forced                                   : No
0 {3 X% E. E7 o: v$ }4 Q' B' LText #10
( e( k/ a  u4 r/ K" ], \ID                                       : 12
3 l& E! m2 Z) j9 }1 g; `Format                                   : UTF-8
) A0 Y2 j. d% u6 Z+ OCodec ID                                 : S_TEXT/UTF8% l6 W: _9 G" Q' a* Y6 S1 h! D& _
Codec ID/Info                            : UTF-8 Plain Text5 k3 R9 g! z9 D6 `4 s. |
Duration                                 : 1 h 44 min
" m* e( S( m* y7 L. Z  pBit rate                                 : 125 b/s
  O8 P) ?# l6 L+ J# I' ~  V8 B9 yCount of elements                        : 1336
  h* b3 w7 i+ c" O+ _) m. h% Y- ]Stream size                              : 95.8 KiB (0%)0 y$ A: P2 E# e
Language                                 : Greek
+ n9 t6 {* |3 D2 [1 j& SDefault                                  : No% H6 O! G: E5 T; k7 h9 S
Forced                                   : No, S) L, x; M" k% P( p. N1 P- W; D+ h
Text #11% p, @1 o4 W0 m$ _# D' i, z# L
ID                                       : 13: v& e; g5 _  y: U  Y) a
Format                                   : UTF-8
7 \7 S+ x5 |% y5 w: D6 k4 rCodec ID                                 : S_TEXT/UTF8
5 s, a0 C: E5 I1 H  W+ zCodec ID/Info                            : UTF-8 Plain Text9 y  @# k6 [' a6 b6 x* ]2 R
Duration                                 : 1 h 44 min
, s; }) u) ]4 r) y; B2 S2 }Bit rate                                 : 70 b/s
0 L( E; v$ M/ a! d% jCount of elements                        : 1358
# e: L3 _+ V' u& x7 ?Stream size                              : 53.6 KiB (0%): `. F; Y6 z3 {) u
Title                                    : Latin American8 T. H5 C' \* H2 Z& R6 G! l: X
Language                                 : Spanish
: F) c- ~/ S7 m/ T: x& E, WDefault                                  : No
6 G: {& B" R* Y* ^Forced                                   : No) U* p" c* ]/ R# G! b
Text #12
' {7 q) Y1 t5 z5 @5 Q- ZID                                       : 14$ M+ O3 E+ p! Q6 }( b- J7 p
Format                                   : UTF-8  P1 Y# h: e, h9 ~2 y  l& a8 n
Codec ID                                 : S_TEXT/UTF8( l6 |3 `1 l' F9 C) C1 c+ l
Codec ID/Info                            : UTF-8 Plain Text# `3 V( _( g% s; r
Duration                                 : 1 h 44 min8 y& s! S* `" `, }: w$ Z$ |! M
Bit rate                                 : 70 b/s
, \) F1 V+ w& u! T+ ~3 \Count of elements                        : 13567 I3 l- P. r* F, [
Stream size                              : 53.7 KiB (0%)
4 @3 @5 Y4 j* j6 Z$ ^+ ^/ R9 ]) KLanguage                                 : Spanish
' K& N7 ^  A& C+ W# L+ |Default                                  : No
0 x7 Q4 |* R# I1 L, n3 fForced                                   : No
, F7 L0 p' r5 N* hText #133 J/ U% L) s' w! K/ o
ID                                       : 15  x) @, ]0 j: f
Format                                   : UTF-8
* z+ N: r8 ?1 T3 g6 j3 ]Codec ID                                 : S_TEXT/UTF8
$ b! Y+ E4 H# ~Codec ID/Info                            : UTF-8 Plain Text2 ~5 ?  P2 t9 F4 E" n) h
Duration                                 : 1 h 44 min1 d3 b  y+ Z( s) p) ]& A
Bit rate                                 : 63 b/s
6 Y0 Y# x% ^3 g. l! g+ cCount of elements                        : 1242
! P6 A  G: W! j  F5 ?Stream size                              : 48.7 KiB (0%)+ C# L# b6 x* j$ \# Q$ H  t7 \3 R
Language                                 : Estonian
# H; U8 P2 c+ |Default                                  : No
% x6 q' T1 [: ]7 M  E, k2 PForced                                   : No9 h* P7 [, A* b8 A) R
Text #14% l0 I- s2 \* L
ID                                       : 16
: w6 ]0 J- Z; MFormat                                   : UTF-8* n% J9 ^, ^9 R7 H
Codec ID                                 : S_TEXT/UTF8
& Y$ x4 J; C6 x2 H9 _% p" nCodec ID/Info                            : UTF-8 Plain Text; C& k% A  \1 G; F3 A( w" o) `
Duration                                 : 1 h 44 min
; p+ l! v! L2 [6 _8 FBit rate                                 : 67 b/s
# \. w8 ]; o# ?2 UCount of elements                        : 13387 D: f3 f  e9 E! \4 P1 |1 k# U" ~
Stream size                              : 51.6 KiB (0%)
3 l( S2 |4 Q3 _& J  Y8 @# fLanguage                                 : Finnish" s0 ]1 N- O7 n" v  ]3 w
Default                                  : No
9 _* W9 I) l% ~; V# Z. z8 A& |# m) O9 JForced                                   : No
( y  M# y( R8 \6 m' IText #15+ |" t7 f$ z- }
ID                                       : 17
3 ]5 X& ?, ~, nFormat                                   : UTF-8
$ L! T# x2 E. R1 [) ZCodec ID                                 : S_TEXT/UTF80 U3 e7 W/ R( E1 D: F% G+ m
Codec ID/Info                            : UTF-8 Plain Text
  R) g# q0 u. A% c+ d5 G. A/ zDuration                                 : 1 h 44 min2 G7 _8 A* j! o6 p) ]
Bit rate                                 : 74 b/s* m+ z+ d6 I* L* h& p1 ?- {8 F
Count of elements                        : 1539& n% _4 J) O) J) B8 Q# d
Stream size                              : 56.7 KiB (0%)4 X5 f& r5 q. f/ q
Title                                    : Canadian
& w# l3 C' h/ y0 j2 J0 g5 ^7 LLanguage                                 : French
, T, ^; J2 }0 @$ R7 r2 dDefault                                  : No3 \5 l( O& I! u/ w
Forced                                   : No4 C# U0 l  k. N1 Y( k! r4 g
Text #16
# P  V+ I' K5 n5 XID                                       : 18% ]+ E/ r4 {- [
Format                                   : UTF-8
# O; z: R' d9 w9 C6 jCodec ID                                 : S_TEXT/UTF8* j( W% C& e/ D/ A
Codec ID/Info                            : UTF-8 Plain Text/ V; s5 d% y1 G* p1 e2 u
Duration                                 : 1 h 44 min; `: @/ ^9 ]$ B& F
Bit rate                                 : 74 b/s
0 Z' ~) J2 {4 N8 sCount of elements                        : 15393 P2 r" R! c! R; S! @. ?5 t
Stream size                              : 56.7 KiB (0%)
$ o& K* [: ~0 V2 o# T, |Language                                 : French! a. p% u" H, X( N& \7 A. j6 t$ A/ b
Default                                  : No
5 C# c4 e+ r0 P/ }" |9 ?# @Forced                                   : No
, _6 p4 G5 h2 Q" R, {+ IText #17
: b, `0 d0 t/ K* p2 f/ Q6 ?ID                                       : 19* x: Y4 ~/ C: A# r! V3 |: \
Format                                   : UTF-8
) r: M- d2 w/ XCodec ID                                 : S_TEXT/UTF8' W" u3 P8 D* h3 o6 d
Codec ID/Info                            : UTF-8 Plain Text8 \* f( a! B2 @* r
Duration                                 : 1 h 44 min) s  u. N" ?. W1 |" B, U. c
Bit rate                                 : 89 b/s
( H4 @' }9 y2 S7 t7 I, M7 u7 PCount of elements                        : 1350( d5 v, r! j/ e1 z$ F& M
Stream size                              : 68.3 KiB (0%)
' J8 K& u, T. y+ x/ nLanguage                                 : Hebrew  E3 p& U  M1 s) M$ O3 B8 e' r9 A( u3 u
Default                                  : No4 p: O' u# N: A4 _/ f1 O; q
Forced                                   : No
7 c: F2 e$ D* G, F/ `Text #18% q& W0 g$ J( t; Y. k  \' I; D
ID                                       : 20
) S. U5 V7 I* Z6 e1 PFormat                                   : UTF-87 Q# {, {- L8 R  e/ c; k# K1 `
Codec ID                                 : S_TEXT/UTF8
7 D0 r0 d) w0 P- v* a) DCodec ID/Info                            : UTF-8 Plain Text
. d1 Y: d5 {- Z7 D7 y( ZDuration                                 : 1 h 44 min
6 L8 A( v3 f2 Y; YBit rate                                 : 209 b/s
" a& V; T8 Z. l5 vCount of elements                        : 1350% R2 u/ F+ Z3 k( c, l
Stream size                              : 160 KiB (0%)
0 G1 V4 i' ], D5 ^6 W9 ZLanguage                                 : Hindi( }3 P; S' X* i7 i1 l7 k* q1 Z; ~
Default                                  : No) R! z; u3 D& M1 M9 w- S5 H+ S3 O
Forced                                   : No
3 c( F. K1 V, n$ \+ z' Y+ R0 z0 E. [7 _Text #19
8 ]3 q2 E+ h: f1 a# f4 G: v3 R: S- o3 hID                                       : 21
/ j7 C7 [3 {( \! K& \2 O3 e* k; bFormat                                   : UTF-81 G) p  I; h. @; U: e+ F; J. H5 F
Codec ID                                 : S_TEXT/UTF8
2 b2 m. c5 v& m9 _9 P2 F0 KCodec ID/Info                            : UTF-8 Plain Text5 C2 R$ a/ \/ ^0 _  ~
Duration                                 : 1 h 44 min
  q3 Y6 r7 J" Y/ Y$ |& k0 H, @Bit rate                                 : 72 b/s
/ e% T9 y; w0 I) L" Y# JCount of elements                        : 1312+ M8 `9 B& U5 s0 T- z8 ~
Stream size                              : 55.4 KiB (0%)
* D+ {' ]9 T  O  C- }: l$ TLanguage                                 : Hungarian/ F6 r! I5 q5 F; j# f
Default                                  : No% C, C( T% ^: D$ j, Z6 R
Forced                                   : No  a4 z+ F1 M9 `( ?( I, d( H0 r! @
Text #20" m) e! x9 _6 f
ID                                       : 22. r# r% w# d8 ?4 R+ B5 I
Format                                   : UTF-83 }! e. Y8 E3 r2 N
Codec ID                                 : S_TEXT/UTF8
, x  J2 f: K% E) f# k2 C7 Y( ACodec ID/Info                            : UTF-8 Plain Text# ~3 ~% D$ k& f: R1 s4 g! ^
Duration                                 : 1 h 44 min4 E: D) I3 I. j2 U7 k; Y
Bit rate                                 : 76 b/s
3 A' R2 R2 R3 z+ {+ x' `# PCount of elements                        : 13507 m1 f3 G  E6 u% K; w
Stream size                              : 58.5 KiB (0%)
0 _6 `7 F* T3 ^8 _# a% CLanguage                                 : Indonesian
) j9 O: h& I8 V2 x- F' I) ADefault                                  : No
3 d1 S1 o/ g4 t& |2 `3 m% _Forced                                   : No
% k& F+ |. ^5 N4 DText #21
4 L( b. y+ M4 k. o0 ]ID                                       : 23
" x- N1 t4 C5 Q+ z& i& k3 B& WFormat                                   : UTF-8/ w2 q" _8 `; u/ Z3 ~) S" T
Codec ID                                 : S_TEXT/UTF8
* G% e6 o2 q1 FCodec ID/Info                            : UTF-8 Plain Text
, b: W3 y# V8 \! bDuration                                 : 1 h 44 min+ E. f7 y3 P2 s- h& H; j9 U
Bit rate                                 : 75 b/s: k; T' ]$ P) g# y, y2 c, O
Count of elements                        : 1352
5 g: V% Y2 u/ u' @# L0 m0 O5 ]Stream size                              : 57.4 KiB (0%)+ \; G$ K" T9 `$ I( [' S
Language                                 : Italian
! }6 l( F7 Z1 L( t7 D% BDefault                                  : No
" ]2 h$ Z; M% m- ]4 JForced                                   : No
6 x4 U# k$ c8 v" u8 tText #22/ U: {7 g. L3 \  E. x1 x1 e0 y
ID                                       : 24
8 l; T. q9 w; M+ P; AFormat                                   : UTF-8
% J+ m+ I# y' x1 r/ l  xCodec ID                                 : S_TEXT/UTF8
" }- Q$ m' V% ^% F# H" RCodec ID/Info                            : UTF-8 Plain Text+ w+ e2 x: c# f/ g, p2 r
Duration                                 : 1 h 44 min
& N: E; d6 z! J2 F# W% F8 \  yBit rate                                 : 65 b/s
" l2 u+ }- O0 r9 A- bCount of elements                        : 1202
/ {- J0 f( T  g' HStream size                              : 50.2 KiB (0%)
7 Z  Y! d. H* `; b+ LLanguage                                 : Japanese& c8 w1 _  u1 V8 @* w* D' L
Default                                  : No( F( L2 y6 u$ j" X  c3 a( {
Forced                                   : No
; m5 `8 K+ Q/ ?3 R  F  C7 oText #23
5 o2 H3 n5 d9 s# C  |9 y+ z7 rID                                       : 25& _. W7 }, C% ?! S
Format                                   : UTF-8# U0 J2 G: q9 f
Codec ID                                 : S_TEXT/UTF8
4 K. I0 i: h. i) S/ n  l+ |Codec ID/Info                            : UTF-8 Plain Text
/ g2 ?% [0 c6 J4 c/ @% z5 LDuration                                 : 1 h 44 min  m6 m5 V7 ?7 r! A
Bit rate                                 : 82 b/s3 i/ e& K+ v6 z6 O
Count of elements                        : 1350
/ x) ^- d. f. I  \Stream size                              : 63.1 KiB (0%)
; D* U6 `' [! lLanguage                                 : Korean4 m* N0 [- M# d3 Y, |! R3 |
Default                                  : No! ], ~6 f! |, @' O  H: F$ u
Forced                                   : No
5 d$ O# Z3 ]$ I0 I4 y$ l9 mText #24
/ q) [$ t! O  O- bID                                       : 264 I. @4 s$ w  c7 N2 i+ \
Format                                   : UTF-81 P) s( Q% A9 U9 {7 u0 |8 s; p
Codec ID                                 : S_TEXT/UTF8
& C  O) i; W* Q! }8 a: ]/ kCodec ID/Info                            : UTF-8 Plain Text
/ `  ?4 ~1 F; _8 ?$ R+ Y! KDuration                                 : 1 h 44 min+ H; U% l  ?% \" ]9 {9 c
Bit rate                                 : 72 b/s
+ O7 v- g0 s- C( G3 o% I! tCount of elements                        : 1349
6 d# V* ^, u7 F' n7 _Stream size                              : 55.2 KiB (0%)
1 J5 f3 h; x$ B- ~4 BLanguage                                 : Lithuanian! p& F1 l& `+ [6 c
Default                                  : No* X9 ]& |6 j7 @& ~; T
Forced                                   : No
4 {6 a5 [8 y9 }- Z+ _7 Y: F3 xText #25$ [% p1 ^' e- }& y- \' \
ID                                       : 27
* K- z$ k& e9 b& t9 f$ L/ j: N/ aFormat                                   : UTF-8" S! B. V" _2 n4 l
Codec ID                                 : S_TEXT/UTF8
9 Q4 |, m! i6 E; n$ _Codec ID/Info                            : UTF-8 Plain Text
7 {. x- E; F8 V+ F, p; z1 X4 ?% oDuration                                 : 1 h 44 min
6 \* R0 U! q* W8 ^Bit rate                                 : 71 b/s
! i3 E% Q: v! X; _2 aCount of elements                        : 1336( }9 y( d  N' k# `- i
Stream size                              : 54.4 KiB (0%)4 P$ `  i' L! f0 r
Language                                 : Latvian' i( C% v% E9 T& j
Default                                  : No5 j! x5 Q+ t& _7 v" K
Forced                                   : No+ w/ R& @5 B) o$ G8 W
Text #26: l( Q/ V. r+ H& \- l$ G; U8 s
ID                                       : 28) E5 z/ N  ?9 S0 \& w- R& r
Format                                   : UTF-89 ~/ Y) [. S4 I
Codec ID                                 : S_TEXT/UTF8
: M( I4 K; g) }- g$ H3 gCodec ID/Info                            : UTF-8 Plain Text, M7 e' U* r8 ?- d7 q' p/ F
Duration                                 : 1 h 44 min% A$ z, H$ U+ N% Y& f/ A
Bit rate                                 : 70 b/s+ B* c2 @9 J0 A, @. L6 v% ?
Count of elements                        : 1350
; p! H( D+ c2 m5 j  l# zStream size                              : 54.0 KiB (0%)% b0 a  m+ U' Y% U9 o
Language                                 : Malay2 |4 [" g' M5 O3 Y% L
Default                                  : No
% S' u, g+ N- zForced                                   : No/ O' @8 _  t/ J
Text #27
! `) G7 ?  \0 ]& \ID                                       : 29
2 n  r* F( D; f: ]Format                                   : UTF-8
; S! k( K6 M4 V! r: u0 k+ M2 oCodec ID                                 : S_TEXT/UTF8
0 Y; |% p' Q. M% o% U2 L4 cCodec ID/Info                            : UTF-8 Plain Text3 d  f- {+ n9 \4 k- F. Y
Duration                                 : 1 h 44 min
9 e9 w1 Z4 E: Q. ^  k, tBit rate                                 : 68 b/s
$ P" |! J; Q  e( N$ ICount of elements                        : 1211/ R* H6 y: {% x$ \7 }
Stream size                              : 52.0 KiB (0%)
3 U) \2 Y/ ~  m; l- x  C0 z( xLanguage                                 : Dutch  i2 [- Z9 r# I6 t8 f
Default                                  : No
; |9 `$ p( e  L4 oForced                                   : No
2 B  ?' q2 |# L0 FText #286 T2 \0 o- Z; }  x, r9 f
ID                                       : 30
6 D  I* c, L6 x; P5 a" ]. eFormat                                   : UTF-8
0 Q2 L0 F" D# J9 i5 \( ]  PCodec ID                                 : S_TEXT/UTF8; b  J, V4 @# t  ]  w% j$ \
Codec ID/Info                            : UTF-8 Plain Text
' e; l! k9 {; gDuration                                 : 1 h 44 min
4 t8 n$ ^+ N: sBit rate                                 : 65 b/s  z! P' H6 q( q, m/ m
Count of elements                        : 1305- M6 X: ~2 t: h1 C
Stream size                              : 50.4 KiB (0%)
+ K& }: }# N3 {! D; J7 oLanguage                                 : Norwegian3 x5 P8 T8 e( O+ ^" R% V5 u
Default                                  : No" e, a7 \2 S. D. {* Q# Y
Forced                                   : No
8 K" \- k' i8 I( UText #29+ M* @5 g! W4 Y  M1 ]$ L1 y
ID                                       : 31& q. A( v6 k% M% y
Format                                   : UTF-8
2 A. E' n& P* g+ ]8 gCodec ID                                 : S_TEXT/UTF8" P& b( a' W* ^. I& i/ Q# P
Codec ID/Info                            : UTF-8 Plain Text/ o0 ]+ `& ^3 ^3 i# f
Duration                                 : 1 h 44 min, m) b: k# i! y6 g, L) W! f% ?- u
Bit rate                                 : 71 b/s
1 A" M0 R' q5 h$ m# J5 L* }* iCount of elements                        : 1350- d7 ]' _8 ]7 S5 D% j2 q
Stream size                              : 55.0 KiB (0%)9 X: t% T+ Z$ \, {
Language                                 : Polish
( u2 `$ J2 Y/ i' E8 y: cDefault                                  : No
$ r  K3 h7 i5 Y1 w* JForced                                   : No2 ?8 Y4 X2 g4 L+ B8 J
Text #30! r. H$ z- ~% Z- e* n
ID                                       : 32! ~' i* V& [1 R, r  ]1 U
Format                                   : UTF-8" N" R5 T" |; a& u; `, \" b
Codec ID                                 : S_TEXT/UTF8. S, R  E3 F& T; p5 y
Codec ID/Info                            : UTF-8 Plain Text+ m! Y2 U& P+ h0 d, q
Duration                                 : 1 h 44 min
3 f, t1 U) d& t1 J! ^3 gBit rate                                 : 73 b/s
0 u* M% o! J/ x: cCount of elements                        : 1351
# A  c& O7 F3 I, X/ _! W  BStream size                              : 55.9 KiB (0%)) P  V2 Z- w$ o4 v
Language                                 : Portuguese, |8 f3 l! F2 s) J$ X
Default                                  : No8 f3 t5 ]3 |9 H% ~. `# Y
Forced                                   : No
( _# t5 |# m9 }4 V; z$ c& KText #310 _7 b  j1 V* f- t; o: M
ID                                       : 33
* H0 B8 b# u; O* A$ lFormat                                   : UTF-81 s" P( F- N$ o6 @& X+ K- x2 N6 T- n
Codec ID                                 : S_TEXT/UTF88 t" t: @$ r! o; R
Codec ID/Info                            : UTF-8 Plain Text
5 C3 |& R6 @& KDuration                                 : 1 h 44 min
# y: x% I! w- }  P, C5 aBit rate                                 : 73 b/s' a4 ?; N5 P2 ?) {
Count of elements                        : 1287
' B$ @7 [6 g0 ]5 b0 o+ S0 C# C2 uStream size                              : 56.4 KiB (0%)
! E8 J& h5 v) X& ^+ G! c6 n3 NTitle                                    : Brazilian
2 Y, l+ R6 c$ z% L+ FLanguage                                 : Portuguese/ G2 }# Z$ R' s7 S, l# g" \  P# }
Default                                  : No: K! R) w; L! \
Forced                                   : No" ]4 G1 o0 i8 D0 A3 d
Text #32
4 {  j1 S  @6 r, c! R3 ~ID                                       : 34
5 |* N( B, Q' l0 I  B4 xFormat                                   : UTF-8) E  N  P3 D5 k) l# j2 N4 I
Codec ID                                 : S_TEXT/UTF8/ w# b* I' W/ ^' F$ v
Codec ID/Info                            : UTF-8 Plain Text
+ V* l" E8 O' r1 b4 FDuration                                 : 1 h 44 min' k$ d. [* y8 x2 E3 ^
Bit rate                                 : 106 b/s- S- {7 C& f8 V7 r( q
Count of elements                        : 1369* M* o/ ]7 q5 v: q7 o1 |/ X
Stream size                              : 81.1 KiB (0%)% r5 ?. [! H) u% Q$ z) `& ~
Language                                 : Russian( {7 }; I9 s* h" O( u2 I9 P$ V
Default                                  : No
/ Y$ T) Y& R' x; P* G7 `8 w( W( ~  LForced                                   : No# e2 K! @( m( C7 z9 v
Text #33  ~5 u% R: E! m; ]) b2 I2 G2 ~
ID                                       : 35" Y6 D" T6 h0 O2 X+ v4 q6 F
Format                                   : UTF-8- t! U8 @% |+ m. j" |- G9 s
Codec ID                                 : S_TEXT/UTF89 p# o* v: a" O7 R
Codec ID/Info                            : UTF-8 Plain Text
( L# h1 S* c) {1 \$ {/ w, yDuration                                 : 1 h 44 min" O  s& R- S9 k7 E( Q, \0 p
Bit rate                                 : 65 b/s
) D$ L- d7 Z& X3 c+ _  Q; gCount of elements                        : 1342) @  j; t9 c( R; t
Stream size                              : 49.8 KiB (0%)+ t  a3 ~8 {0 c6 X
Language                                 : Slovak$ {2 b, @2 |" c( C* z9 e& @
Default                                  : No
, V! o7 Q" \; n0 t5 dForced                                   : No
0 q( Z: q, G1 d4 {# @0 vText #34
& p( r3 V  W6 f$ \( ?$ O( TID                                       : 36
8 J2 E" C# q. R7 ^4 lFormat                                   : UTF-84 f% C) u5 {( c8 c' k3 d
Codec ID                                 : S_TEXT/UTF8
( r# p9 z. ?6 Y( W; jCodec ID/Info                            : UTF-8 Plain Text" I7 l2 X1 ^, h3 U  }' `
Duration                                 : 1 h 44 min
) c6 {- \" S8 wBit rate                                 : 62 b/s* M. A# N" y. o2 w1 A9 y9 C
Count of elements                        : 1173
( b+ Q, \/ B4 L' F9 E' YStream size                              : 47.6 KiB (0%)
5 ^+ F; b( A; z6 tLanguage                                 : Slovenian
; z- b2 P+ j, c7 YDefault                                  : No9 z0 O7 J1 w* A; I; D# X
Forced                                   : No0 o2 I8 ]$ ^/ C2 F( H# u
Text #35
) d0 M8 r5 S7 H/ z: jID                                       : 37
2 e# M" Z4 B% cFormat                                   : UTF-8  d' M. t. i  G
Codec ID                                 : S_TEXT/UTF8
9 i" L) Z, v! R) u! ^1 wCodec ID/Info                            : UTF-8 Plain Text  j8 V& p: G5 b
Duration                                 : 1 h 44 min
$ u8 j3 c! o- k! i* X% |2 fBit rate                                 : 65 b/s' C9 }& V( h  O4 }3 J) K' ^
Count of elements                        : 1267/ w/ V; p) a" p3 H0 Y. {9 B
Stream size                              : 49.9 KiB (0%)
3 _  y6 q; g" Q" Z0 _: ?+ NLanguage                                 : Swedish
, t1 ?6 z2 }6 a7 Y" a6 RDefault                                  : No3 m  G$ Q" w- {3 s' }
Forced                                   : No: b5 v! L9 ~; e
Text #367 f, @; _5 h  \' _& Y  Z+ h
ID                                       : 38
! F0 \' V/ v$ F  E" CFormat                                   : UTF-8
6 d5 c) q% p, S( d" D& z; wCodec ID                                 : S_TEXT/UTF81 @- L3 u- H8 _
Codec ID/Info                            : UTF-8 Plain Text$ Z4 W" H1 ?" I. i: H
Duration                                 : 1 h 44 min2 M/ ~; n/ u- g+ U& ], B0 h* }* j/ M
Bit rate                                 : 252 b/s, y: q# h8 ?8 O% c6 B
Count of elements                        : 1350  G$ p& j% G7 |* I+ ^
Stream size                              : 193 KiB (0%)
3 Q' h+ c; N6 WLanguage                                 : Tamil
9 F! A) I8 e( m' W0 }& mDefault                                  : No6 D) d$ _6 w/ @! I/ M9 f
Forced                                   : No9 q- n4 w9 [5 \. f
Text #37
; `" A9 v) Q# u# aID                                       : 39
7 V  x/ a( y$ @' ]8 a! j0 ]$ K: nFormat                                   : UTF-84 _6 ]+ F( ~$ W8 P9 W" `, D! n
Codec ID                                 : S_TEXT/UTF8
/ |3 P6 h! I  A2 @  kCodec ID/Info                            : UTF-8 Plain Text- J6 ~" b9 ]. o$ N6 Q8 L! |0 h
Duration                                 : 1 h 44 min& B/ x2 T1 d0 `9 l. q; ?
Bit rate                                 : 207 b/s
; f1 a( d: k3 ^( [! |" WCount of elements                        : 1350* D5 P* x9 N. x0 P
Stream size                              : 159 KiB (0%)
- J! R- C, T' t; Q5 lLanguage                                 : Telugu
! m$ d: F6 O2 z, I) E* L- Z/ EDefault                                  : No
2 g1 n& ]( ~7 o3 w, yForced                                   : No
. t5 w( e, S' S( s3 ~Text #38
" q, X6 i, m' o# }# ]* ?1 ?ID                                       : 40
. a1 R6 S7 g, aFormat                                   : UTF-8
0 D, L5 R9 ~; m/ }5 M' C2 {* \Codec ID                                 : S_TEXT/UTF8
+ i1 w& r6 i/ QCodec ID/Info                            : UTF-8 Plain Text
7 O% @" ]/ K$ w8 J5 X1 LDuration                                 : 1 h 44 min
+ t' h, Q8 o, c) U3 v1 E6 iBit rate                                 : 183 b/s- Y: m8 O  x& f( v5 @+ g
Count of elements                        : 1349
: v4 @  g% B; b8 qStream size                              : 140 KiB (0%)
* `3 {9 [% z3 f. eLanguage                                 : Thai
: F! F, J9 z: w& nDefault                                  : No
1 i$ w6 k: g8 e" TForced                                   : No4 m5 G( V- q9 @% {
Text #39
5 ~; a7 X! l# P: oID                                       : 41
" ~8 j2 K# ]# z# jFormat                                   : UTF-8& U+ e( _! \' A' k4 m* J2 K. k) g
Codec ID                                 : S_TEXT/UTF82 D3 j. }4 L# n
Codec ID/Info                            : UTF-8 Plain Text
& }0 K  g6 y. S' D  uDuration                                 : 1 h 44 min
) W% q; ^  l4 g1 V- d2 J9 B3 VBit rate                                 : 75 b/s
6 x% q* b; _& i! B1 L1 n! \6 S$ g% xCount of elements                        : 1349
  k2 s/ _! m7 h: r& gStream size                              : 57.7 KiB (0%)
0 u0 `8 p' i7 B" e; CLanguage                                 : Turkish& R7 |9 G) u4 X# d6 X
Default                                  : No
( X7 q" P5 L1 ^: R4 y! h$ N8 XForced                                   : No
1 \: T9 q. K1 s1 U# U; sText #40
2 |+ \+ F6 D9 N+ V$ t7 \$ b# nID                                       : 42% d- m, L, v) q5 T- U+ X( E0 L
Format                                   : UTF-8
3 M, }$ x: R6 @8 z0 n% x3 f" n$ j" _* FCodec ID                                 : S_TEXT/UTF8
3 m% e4 x- D% m, @Codec ID/Info                            : UTF-8 Plain Text5 E4 {& r9 a' |0 y! T1 q
Duration                                 : 1 h 44 min" E- e/ b$ J4 x# k
Bit rate                                 : 106 b/s
- S, G. C; I  O$ D6 oCount of elements                        : 1349* @' {3 ], F7 j* w
Stream size                              : 81.1 KiB (0%)1 J/ U  D6 ?- Z3 L3 k# {- {
Language                                 : Ukrainian: Z0 e' }8 ~6 E6 n6 b
Default                                  : No1 E3 v" ]! \$ R  E
Forced                                   : No
' O) {( v+ t. o! @Text #41) N" ]2 a; `! {( Q- l; Q
ID                                       : 43
; G' t- [8 A& I% V: Q! _Format                                   : UTF-8' T8 q8 U2 b2 {" a3 t/ V5 ?
Codec ID                                 : S_TEXT/UTF8$ @$ A8 t. w0 F
Codec ID/Info                            : UTF-8 Plain Text
  H0 r! v9 f) `& l. ?) B* BDuration                                 : 1 h 44 min
9 g# J8 R7 c9 J' J$ IBit rate                                 : 92 b/s' p$ ?9 {- q$ J; Y' ]+ s- x% P
Count of elements                        : 1351
+ C) v: K) U  S# a: a" EStream size                              : 70.8 KiB (0%)
2 K1 [' D$ [$ p  Y1 P7 |3 x' ?Language                                 : Vietnamese
: G  d7 t6 @" Z0 i5 eDefault                                  : No, j' @' U1 K7 [5 v( z" o/ W
Forced                                   : No. ?* }) U; a2 c1 J+ P6 T& u
Text #42
8 ?; V* J7 l, f; f, ~* c( N6 V. bID                                       : 44
4 q7 ~$ U8 G: U, A! M( w6 ?2 cFormat                                   : UTF-8$ S( M/ D' D& O
Codec ID                                 : S_TEXT/UTF8
) @: t9 v; `3 m: o3 z2 H$ kCodec ID/Info                            : UTF-8 Plain Text+ L8 ?: C' \4 j: o
Duration                                 : 1 h 44 min& r0 G- D  A: G- K5 t
Bit rate                                 : 66 b/s/ ~) U/ E, r+ r. l
Count of elements                        : 1350
! v, J8 _1 Y9 wStream size                              : 50.8 KiB (0%)& h4 j2 z0 q. r7 a1 V
Title                                    : Cantonese! J9 T& j7 A, u2 `. t
Language                                 : Chinese: O% K# ^) A+ z
Default                                  : No
' I' L( j. M( oForced                                   : No
% [$ V, W  l0 C3 c/ [

1 i+ i+ w, j- j( P7 m; T9 n
6 L7 ]) S; u5 [! B1 v& i 7e4051ac9d1cc5844d0fabc70586c4d0.png ( `# o" v) L" k& B  Q7 t; q
1b37ff076d70933e1595113081ed6b0e.png
" I* y8 R4 o2 ^/ Q  B 9bca9579f4aaffab5c4c7f86352c7dfe.png   Z( g0 S4 C* w  U* |0 \
9 |6 h# M4 H" w

/ b; V" t2 x: s蓝光高清网提示您 点击下方附件名称 即可开始下载$ g1 z0 A0 h  L: D
6 j6 w" \3 `* O9 k5 r
3 s# x+ I' v7 p. H
麦克白的悲剧 The.Tragedy.of.Macbeth.2021.2160p.ATVP.WEB-DL.x265.10bit.HDR.DD5.1.Atmos-4k电影下载& j0 x' S) `5 I9 A8 U7 q
2 N* w9 W, J  V! K/ u
麦克白的悲剧 The.Tragedy.of.Macbeth.2021.2160p.ATVP.WEB-DL.x265.10bit.HDR.DD5.1.Atmos-17.90GB 【自带中字】
8 h2 G5 ]3 j  l# `# `) @  ^ The.Tragedy.of.Macbeth.2021.2160p.ATVP.WEB-DL.x265.10bit.HDR.DD5.1.Atmos-TEPES.torrent (23.05 KB)
加入蓝光高清网VIP会员  无限制下载本站所有资源---点这里

资源下载、资源播放、字幕使用、无法下载等常见问题---点这里
回复

使用道具 举报

全部回复3

goushuyuan90手机认证 发表于 2022-1-17 14:25:32

goushuyuan90 沙发

2022-1-17 14:25:32

谢谢分享,占个坑
回复 支持 反对

使用道具 举报

goushuyuan90手机认证 发表于 2022-1-17 14:25:52

goushuyuan90 板凳

2022-1-17 14:25:52

歇息分享,占个坑
回复 支持 反对

使用道具 举报

高清时代 发表于 7 天前

高清时代 地板

7 天前

感谢楼主分享!!!!!!!!!!!!!!
回复 支持 反对

使用道具 举报

发表回复

您需要登录后才可以回帖 登录 | 立即注册

返回列表 本版积分规则

  • 发帖

  • 在线客服

  • 微信

  • 客户端

  • 返回顶部