蓝光高清网

开启左侧

[剧情] 勇者无惧 None.But.the.Brave.1965.iNTERNAL.1080p.BluRay.x264-YAMG 9.11GB

[复制链接]

2022-1-15 00:11:59 628 2

image.png

◎译  名 勇者无惧/l'ile des braves/断魂岛
◎片  名 None But the Brave
◎年  代 1965
◎产  地 美国,日本
◎类  别 剧情 / 战争
◎语  言 英语,日语
◎上映日期 1965-02-24
◎豆瓣评分 /10 from 0 users
◎片  长 106分钟
◎导  演 弗兰克·辛纳特拉 Frank Sinatra
◎编  剧 约翰·特威斯特 John Twist
◎主  演 Joe Gray Joe Gray
       莱蕾·史蒂芬斯 Laraine Stephens
       Phillip Crosby Phillip Crosby
       Christopher Dark Christopher Dark
       Homare Suguro Homare Suguro
       Roger Ewing Roger Ewing
       Ryucho Shunputei Ryucho Shunputei
       伊吹彻 T?ru Ibuki
       拉斐尔·约翰逊 Rafer Johnson
       吉米·格里芬 Jimmy Griffin
       托尼·比尔 Tony Bill
       理查德·巴卡利安 Richard Bakalyan
       太宰久雄 Hisao Dazai
       克林特·沃克 Clint Walker
       加藤武 Takeshi Kat?
       Sammy Jackson Sammy Jackson
       黑部进 Susumu Kurobe
       谷村昌彦 Mashahiko Tanimura
       弗兰克·辛纳特拉 Frank Sinatra
       三桥达也 Tatsuya Mihashi
       佐原健二 Kenji Sahara
       汤米·桑兹 Tommy Sands
       布拉德·德克斯特 Brad Dexter
◎简  介


  美国和日本兵,在一个很小的太平洋岛屿滞留在第二次世界大战期间,必须作出暂时停火和合作,以生存的各种磨难。通过美国和日本部队指挥官的眼睛,谁必须面对一个日益不信任和男人之间的紧张气氛
  1. Video
  2. ID                                       : 1
  3. Format                                   : AVC
  4. Format/Info                              : Advanced Video Codec
  5. Format profile                           : [email protected]
  6. Format settings                          : CABAC / 5 Ref Frames
  7. Format settings, CABAC                   : Yes
  8. Format settings, Reference frames        : 5 frames
  9. Codec ID                                 : V_MPEG4/ISO/AVC
  10. Duration                                 : 1 h 45 min
  11. Bit rate                                 : 11.5 Mb/s
  12. Width                                    : 1 920 pixels
  13. Height                                   : 816 pixels
  14. Display aspect ratio                     : 2.35:1
  15. Frame rate mode                          : Constant
  16. Frame rate                               : 23.976 (24000/1001/189150) FPS
  17. Color space                              : YUV
  18. Chroma subsampling                       : 4:2:0
  19. Bit depth                                : 8 bits
  20. Scan type                                : Progressive
  21. Bits/(Pixel*Frame)                       : 0.306
  22. Stream size                              : 8.47 GiB (93%)
  23. Writing library                          : x264 core 164 r3075 66a5bc1
  24. Encoding settings                        : cabac=1 / ref=5 / deblock=1:-3:-3 / analyse=0x3:0x133 / me=umh / subme=10 / psy=1 / psy_rd=1.00:0.00 / mixed_ref=1 / me_range=32 / chroma_me=1 / trellis=2 / 8x8dct=1 / cqm=0 / deadzone=21,11 / fast_pskip=0 / chroma_qp_offset=-2 / threads=24 / lookahead_threads=4 / sliced_threads=0 / nr=0 / decimate=0 / interlaced=0 / bluray_compat=0 / constrained_intra=0 / bframes=8 / b_pyramid=2 / b_adapt=2 / b_bias=0 / direct=3 / weightb=1 / open_gop=0 / weightp=2 / keyint=250 / keyint_min=23 / scenecut=40 / intra_refresh=0 / rc=crf / mbtree=0 / crf=17.0 / qcomp=0.60 / qpmin=0 / qpmax=69 / qpstep=4 / ip_ratio=1.40 / pb_ratio=1.30 / aq=3:0.60
  25. Language                                 : English
  26. Default                                  : Yes
  27. Forced                                   : No
  28. Color range                              : Limited
  29. Matrix coefficients                      : BT.709

  30. Audio
  31. ID                                       : 2
  32. Format                                   : FLAC
  33. Format/Info                              : Free Lossless Audio Codec
  34. Codec ID                                 : A_FLAC
  35. Duration                                 : 1 h 45 min
  36. Bit rate mode                            : Variable
  37. Bit rate                                 : 806 kb/s
  38. Channel(s)                               : 2 channels
  39. Channel layout                           : L R
  40. Sampling rate                            : 48.0 kHz
  41. Frame rate                               : 11.719 FPS (4096 SPF)
  42. Bit depth                                : 24 bits
  43. Compression mode                         : Lossless
  44. Stream size                              : 609 MiB (7%)
  45. Title                                    : English
  46. Writing library                          : libFLAC 1.3.3 (UTC 2019-08-04)
  47. Language                                 : English
  48. Default                                  : Yes
  49. Forced                                   : No

  50. Text #1
  51. ID                                       : 3
  52. Format                                   : UTF-8
  53. Codec ID                                 : S_TEXT/UTF8
  54. Codec ID/Info                            : UTF-8 Plain Text
  55. Duration                                 : 1 h 39 min
  56. Bit rate                                 : 11 b/s
  57. Count of elements                        : 228
  58. Stream size                              : 8.13 KiB (0%)
  59. Title                                    : English Forced
  60. Language                                 : English
  61. Default                                  : Yes
  62. Forced                                   : Yes

  63. Text #2
  64. ID                                       : 4
  65. Format                                   : UTF-8
  66. Codec ID                                 : S_TEXT/UTF8
  67. Codec ID/Info                            : UTF-8 Plain Text
  68. Duration                                 : 1 h 42 min
  69. Bit rate                                 : 56 b/s
  70. Count of elements                        : 1424
  71. Stream size                              : 42.6 KiB (0%)
  72. Title                                    : English
  73. Language                                 : English
  74. Default                                  : No
  75. Forced                                   : No

  76. Text #3
  77. ID                                       : 5
  78. Format                                   : UTF-8
  79. Codec ID                                 : S_TEXT/UTF8
  80. Codec ID/Info                            : UTF-8 Plain Text
  81. Duration                                 : 1 h 42 min
  82. Bit rate                                 : 58 b/s
  83. Count of elements                        : 1467
  84. Stream size                              : 44.1 KiB (0%)
  85. Title                                    : English SDH
  86. Language                                 : English
  87. Default                                  : No
  88. Forced                                   : No

  89. Text #4
  90. ID                                       : 6
  91. Format                                   : PGS
  92. Muxing mode                              : zlib
  93. Codec ID                                 : S_HDMV/PGS
  94. Codec ID/Info                            : Picture based subtitle format used on BDs/HD-DVDs
  95. Duration                                 : 1 h 42 min
  96. Bit rate                                 : 80.7 kb/s
  97. Count of elements                        : 2934
  98. Stream size                              : 59.3 MiB (1%)
  99. Title                                    : English SDH PGS
  100. Language                                 : English
  101. Default                                  : No
  102. Forced                                   : No

  103. Text #5
  104. ID                                       : 7
  105. Format                                   : PGS
  106. Muxing mode                              : zlib
  107. Codec ID                                 : S_HDMV/PGS
  108. Codec ID/Info                            : Picture based subtitle format used on BDs/HD-DVDs
  109. Duration                                 : 1 h 39 min
  110. Bit rate                                 : 15.3 kb/s
  111. Count of elements                        : 456
  112. Stream size                              : 10.8 MiB (0%)
  113. Title                                    : English Forced PGS
  114. Language                                 : English
  115. Default                                  : No
  116. Forced                                   : No

  117. Menu
  118. 00:00:00.000                             : en:Chapter 01
  119. 00:04:38.862                             : en:Chapter 02
  120. 00:08:20.375                             : en:Chapter 03
  121. 00:13:29.517                             : en:Chapter 04
  122. 00:17:16.827                             : en:Chapter 05
  123. 00:21:37.838                             : en:Chapter 06
  124. 00:26:50.609                             : en:Chapter 07
  125. 00:33:26.254                             : en:Chapter 08
  126. 00:35:39.888                             : en:Chapter 09
  127. 00:38:46.491                             : en:Chapter 10
  128. 00:42:47.815                             : en:Chapter 11
  129. 00:46:30.037                             : en:Chapter 12
  130. 00:51:40.264                             : en:Chapter 13
  131. 00:55:13.352                             : en:Chapter 14
  132. 00:58:56.408                             : en:Chapter 15
  133. 01:04:34.079                             : en:Chapter 16
  134. 01:10:47.910                             : en:Chapter 17
  135. 01:16:40.554                             : en:Chapter 18
  136. 01:21:03.067                             : en:Chapter 19
  137. 01:24:17.010                             : en:Chapter 20
  138. 01:29:38.873                             : en:Chapter 21
  139. 01:33:55.213                             : en:Chapter 22
  140. 01:38:43.501                             : en:Chapter 23
  141. 01:42:02.158                             : en:Chapter 24
  142. 01:44:11.871                             : en:Chapter 25
复制代码

蓝光高清网提示您 点击下方附件名称 即可开始下载

勇者无惧 None.But.the.Brave.1965.iNTERNAL.1080p.BluRay.x264-YAMG 9.11GB
None.But.the.Brave.1965.iNTERNAL.1080p.BluRay.x264-YAMG.torrent (23.53 KB)
加入蓝光高清网VIP会员  无限制下载本站所有资源---点这里

资源下载、资源播放、字幕使用、无法下载等常见问题---点这里
回复

使用道具 举报

全部回复2

wangzhang3手机认证 发表于 2022-1-14 18:26:24

wangzhang3 沙发

2022-1-14 18:26:24

楼主辛苦了,谢谢分享
回复 支持 反对

使用道具 举报

PCHUN 发表于 2022-1-15 00:11:59

PCHUN 板凳

2022-1-15 00:11:59

Thanks for sharing
回复 支持 反对

使用道具 举报

发表回复

您需要登录后才可以回帖 登录 | 立即注册

返回列表 本版积分规则

:
:
1371333023@qq.com
:
点击这里给我发消息
:
http://
:
未填写

主题97224

帖子97728

积分183041

最新推荐

  • 轮回 4k.Samsara.2011.2160p.WEB-DL.x265.1

    简 介   灵动的音符与舞步,天真无邪且

  • 爱情狂奔 Love.On.The.Run.1979.FRENCH.108

    ◎译  名 爱情狂奔 / 爱情飞逝 / 爱情奔跑 /

  • 偷吻 Stolen.Kisses.1968.1080p.BluRay.x26

    ◎译  名 偷吻 / Stolen Kisses◎片  名 Ba

  • 永恒族 Eternals.2021.1080p.BluRay.x264.D

    ◎译  名 永恒族 / 永恒神族 / The Eternals◎

  • 大红狗克里弗 Clifford.The.Big.Red.Dog.20

    ◎译  名 大红狗克里弗 / 赤BIG灵灵狗(港)◎片

  • WWE:强者生存 2021 WWE.Survivor.Series.2

    ◎译  名 WWE:强者生存 2021◎片  名 WWE

  • 豪门血劫 The.Banker.1989.1080p.BluRay.x2

    ◎译  名 豪门血劫 / 银行家◎片  名 The B

  • 破产姐妹 2.Broke.Girls.S05.1080p.HDTV.X2

    影片参数 蓝光高清网提示您 点击下方附件名称 即

  • 爱情是狗娘 4k.Amores.Perros.2000.SPANISH

    简 介   三个与狗有关的故事,三段令人

  • 四百下 / 胡作非为 / The 400 Blows/四百击

    简 介   作文课上,安托万(Jean-Pierre

  • 世界之美THE BEAUTY OF THE WORLD in 8K UL

    影片参数 蓝光高清网提示您 点击下方附件名

  • 8K(60p)VIDEOS UltraHD _ Realistic 8K HD

    影片参数 蓝光高清网提示您 点击下方附件名

  • 8K (120 FPS) VIDEOS _ World 8K Videos H

    影片参数 蓝光高清网提示您 点击下方附件

  • 8K (60 FPS) VIDEOS _ Beauty of WorldH

    影片参数 蓝光高清网提示您 点击下方

  • 变种动物园 怪奇兽乐园(台)Cryptozoo.2021

    ◎译  名 变种动物园 / 怪奇兽乐园(台)◎片 

  • 红圈 Le.Cercle.Rouge.1970.REMASTERED.108

    ◎译  名 红圈 / 血环 / 仁义血环 / 死性不改

  • 陆阿采与黄飞鸿 Challenge.of.the.Masters.

    ◎译  名 陆阿采与黄飞鸿 / Challenge of the

  • 唐人街小子 Chinatown.Kid.1977.Alternate.

    ◎译  名 唐人街小子 / 唐人街功夫小子 / 以毒

  • 发帖

  • 在线客服

  • 微信

  • 客户端

  • 返回顶部