蓝光高清网

开启左侧

[动作] 一代宗師 The.Grandmaster.2013.US.CUT.1080p.BluRay.x264-YAMG 10.31GB

[复制链接]

5 天前 1135 5

image.png

◎译  名 一代宗师/The Grandmaster/一代宗师3D/一代宗师终极版
◎片  名 一代宗師
◎年  代 2013
◎产  地 中国大陆,中国香港
◎类  别 剧情 / 动作 / 爱情 / 传记
◎语  言 汉语普通话,粤语,日语
◎上映日期 2013-01-08(中国大陆) / 2013-01-10(中国香港) / 2013-08-23(美国) / 2015-01-08(中国大陆 3D)
◎豆瓣评分 8.1/10 from 538843 users
◎片  长 111分钟(3D重映)
◎导  演 王家卫 Kar Wai Wong
◎编  剧 邹静之 Jingzhi Zou / 徐浩峰 Haofeng Xu / 王家卫 Kar Wai Wong
◎主  演 梁朝伟 Tony Leung Chiu Wai
       章子怡 Ziyi Zhang
       张震 Chen Chang
       宋慧乔 Hye-kyo Song
       赵本山 Benshan Zhao
       小沈阳 Xiao Shen-Yang
       王庆祥 Qingxiang Wang
       张晋 Max Zhang
       卢海鹏 Hoi-Pang Lo
       冯克安 Hark-On Fung
       刘家勇 Kar-Yung Lau
       张智霖 Julian Cheung
       金士杰 Shih-Chieh King
       徐锦江 Elvis Tsui
       刘洵 Shun Lau
       尚铁龙 Tielong Shang
       罗莽 Meng Lo
       吴廷烨 Berg Ng
       张国立 Guoli Zhang
       袁和平 Woo-ping Yuen
       梁小龙 Siu-Lung Leung
       袁祥仁 Cheung-Yan Yuen
       黎烈弓 Cung Le
       袁信义 Shun-Yee Yuen
       戚冠军 Kuan-Chun Chi
       王玨 George Wang
       吴云飞 Yunfei Wu
       任欣羽 Xinyu Ren
       江道海 To-hoi Kong
       魏小欢 Xiaohuan Wei
       吴艺璇 Yixuan Wu
       周小飞 Xiaofei Zhou
       江健 Jian Jiang
       吉飞龙 Feilong Ji
       贺勋 Xun He
       陈伟 Wei Chen
       赵芳华 Fanghua Zhao
◎简  介


  广东佛山人叶问(梁朝伟 饰),年少时家境优渥,师从咏春拳第三代传人陈华顺学习拳法,师傅“一条腰带一口气”的告诫,支持他走过兵荒马乱、朝代更迭的混乱年代。妻子张永成(宋慧乔 饰)泼辣干练,二人夫唱妇随,琴瑟合璧。
  
  1936年,佛山武术界乱云激荡。八卦拳宗师宫羽田(王庆祥 饰)年事已高,承诺隐退。其所担任的中华武士会会长职位,自然引起武林高手的关注与觊觎。包括宫羽田的独生女宫二(章子怡 饰)在内,白猿马三(张晋 饰)、关东之鬼丁连山(赵本山 饰)、咏春叶问等高手无不将目光聚焦在正气凛然的宫羽田身上。拳有南北,国有南北乎?最有德行之人才堪会长重任,然这浮世虚名却引得无数迷乱之人狂醉奔忙,浪掷残生。生逢乱世,儿女情长埋藏心底,被冷若寒冰的车轮碾作碎泥……
◎获奖情况
  第86届奥斯卡金像奖 ?(2014)
  最佳摄影(提名) 菲利浦·勒素
  最佳服装设计(提名) 张叔平
  
  第50届台北金马影展 ?(2013)
  金马奖最佳剧情片(提名)
  金马奖最佳导演(提名) 王家卫
  金马奖最佳男主角(提名) 梁朝伟
  金马奖最佳女主角 章子怡
  金马奖最佳摄影 菲利浦·勒素
  金马奖最佳美术设计 张叔平?/?邱伟明
  金马奖最佳造型设计 张叔平
  金马奖最佳动作设计(提名) 袁和平
  金马奖最佳剪辑(提名) 潘雄?/?张叔平?/?本·科尔廷斯
  金马奖最佳音效(提名) 柴塞普·旺派邦?/?罗伯特·麦肯齐
  金马奖最佳视觉效果 皮埃尔·巴芬
  观众票选最佳影片
  
  第33届香港电影金像奖 ?(2014)
  最佳电影
  最佳导演 王家卫
  最佳编剧 王家卫?/?徐浩峰?/?邹静之
  最佳男主角(提名) 梁朝伟
  最佳女主角 章子怡
  最佳男配角 张晋
  最佳摄影 菲利浦·勒素
  最佳剪接 张叔平?/?本·科尔廷斯
  最佳美术指导 张叔平?/?邱伟明
  最佳服装造型设计 张叔平
  最佳动作设计 袁和平
  最佳原创电影音乐 纳塞纽·梅切利?/?梅林茂
  最佳音响效果 罗伯特·伊恩·麦肯齐?/?柴塞普·旺派邦
  最佳视觉效果(提名) 皮埃尔·巴芬
  
  第29届中国电影金鸡奖 ?(2013)
  最佳导演(提名) 王家卫
  最佳女主角(提名) 章子怡
  最佳男配角 王庆祥
  
  第32届大众电影百花奖 ?(2014)
  最佳故事片
  最佳导演(提名) 王家卫
  最佳编剧(提名) 王家卫?/?徐浩峰?/?邹静之
  最佳女主角 章子怡
  最佳男配角(提名) 张晋
  
  第15届中国电影华表奖 ?(2013)
  优秀女演员奖 章子怡
  优秀合拍片奖
  
  第8届亚洲电影大奖 ?(2014)
  最佳电影
  最佳导演 王家卫
  最佳男主角(提名) 梁朝伟
  最佳女主角 章子怡
  最佳编剧(提名) 王家卫?/?徐浩峰?/?邹静之
  最佳摄影 菲利浦·勒素
  最佳剪接(提名) 张叔平?/?潘雄?/?本·科尔廷斯
  最佳原创音乐 纳塞纽·梅切利?/?梅林茂
  最佳美术指导 张叔平?/?邱伟明
  最佳造型设计 张叔平
  最佳视觉效果(提名) 皮埃尔·巴芬
  
  第28届美国摄影协会奖 ?(2014)
  电影长片最佳摄影(提名) 菲利浦·勒素
  
  第61届美国音效剪辑协会奖 ?(2014)
  金卷轴奖最佳外语片音效剪辑(提名) 罗伯特·麦肯齐?/?萨姆·佩蒂?/?史蒂夫·伯吉斯?/?柴塞普·旺派邦?/?诺帕瓦特·里基特王?/?克里斯·古迪斯?/?约翰·辛普森
  
  第85届美国国家评论协会奖 ?(2014)
  五佳外语片
  
  第34届波士顿影评人协会奖 ?(2013)
  最佳摄影(提名) 菲利浦·勒素
  
  第13届凤凰城影评人协会奖 ?(2013)
  最佳外语片(提名)
  
  第4届北京国际电影节 ?(2014)
  天坛奖最佳影片奖(提名) 王家卫
  天坛奖最佳导演奖 王家卫
  天坛奖最佳女主角奖 章子怡
  天坛奖最佳摄影奖
  
  第14届华语电影传媒大奖 ?(2014)
  百家传媒年度致敬电影(提名)
  观众票选最受瞩目表现(提名) 张晋
  最佳电影(提名)
  最佳导演(提名) 王家卫
  最佳男主角(提名) 梁朝伟
  最佳女主角 章子怡
  最佳男配角 王庆祥
  最佳男配角(提名) 张晋
  
  第17届美国在线影评人协会奖 ?(2013)
  最佳摄影(提名)
  
  第20届北京大学生电影节 ?(2013)
  最佳影片奖(提名)
  最佳导演奖(提名) 王家卫
  最佳女演员奖(提名) 章子怡
  
  第4届豆瓣电影鑫像奖 ?(2014)
  鑫豆单元最佳影片(华语)
  鑫豆单元最佳导演(华语) 王家卫
  鑫豆单元最佳男演员(华语) 梁朝伟
  鑫豆单元最佳女演员(华语) 章子怡
  鑫豆单元最佳配乐(提名)
  1. Video
  2. ID                                       : 1
  3. Format                                   : AVC
  4. Format/Info                              : Advanced Video Codec
  5. Format profile                           : [email protected]
  6. Format settings                          : CABAC / 5 Ref Frames
  7. Format settings, CABAC                   : Yes
  8. Format settings, Reference frames        : 5 frames
  9. Codec ID                                 : V_MPEG4/ISO/AVC
  10. Duration                                 : 1 h 48 min
  11. Bit rate                                 : 10.6 Mb/s
  12. Width                                    : 1 920 pixels
  13. Height                                   : 818 pixels
  14. Display aspect ratio                     : 2.35:1
  15. Frame rate mode                          : Constant
  16. Frame rate                               : 23.976 (24000/1001/189150) FPS
  17. Color space                              : YUV
  18. Chroma subsampling                       : 4:2:0
  19. Bit depth                                : 8 bits
  20. Scan type                                : Progressive
  21. Bits/(Pixel*Frame)                       : 0.282
  22. Stream size                              : 8.03 GiB (78%)
  23. Writing library                          : x264 core 164 r3081 19856cc
  24. Encoding settings                        : cabac=1 / ref=5 / deblock=1:-3:-3 / analyse=0x3:0x133 / me=umh / subme=10 / psy=1 / psy_rd=1.00:0.00 / mixed_ref=1 / me_range=32 / chroma_me=1 / trellis=2 / 8x8dct=1 / cqm=0 / deadzone=21,11 / fast_pskip=0 / chroma_qp_offset=-2 / threads=24 / lookahead_threads=4 / sliced_threads=0 / nr=0 / decimate=0 / interlaced=0 / bluray_compat=0 / constrained_intra=0 / bframes=8 / b_pyramid=2 / b_adapt=2 / b_bias=0 / direct=3 / weightb=1 / open_gop=0 / weightp=2 / keyint=250 / keyint_min=23 / scenecut=40 / intra_refresh=0 / rc=crf / mbtree=0 / crf=17.0 / qcomp=0.60 / qpmin=0 / qpmax=69 / qpstep=4 / ip_ratio=1.40 / pb_ratio=1.30 / aq=3:0.60
  25. Language                                 : English
  26. Default                                  : Yes
  27. Forced                                   : No
  28. Color range                              : Limited
  29. Matrix coefficients                      : BT.709

  30. Audio #1
  31. ID                                       : 2
  32. Format                                   : DTS XLL
  33. Format/Info                              : Digital Theater Systems
  34. Commercial name                          : DTS-HD Master Audio
  35. Codec ID                                 : A_DTS
  36. Duration                                 : 1 h 48 min
  37. Bit rate mode                            : Variable
  38. Bit rate                                 : 2 553 kb/s
  39. Channel(s)                               : 6 channels
  40. Channel layout                           : C L R Ls Rs LFE
  41. Sampling rate                            : 48.0 kHz
  42. Frame rate                               : 93.750 FPS (512 SPF)
  43. Bit depth                                : 24 bits
  44. Compression mode                         : Lossless
  45. Stream size                              : 1.93 GiB (19%)
  46. Title                                    : Chinese
  47. Language                                 : Chinese
  48. Default                                  : Yes
  49. Forced                                   : No

  50. Audio #2
  51. ID                                       : 3
  52. Format                                   : AC-3
  53. Format/Info                              : Audio Coding 3
  54. Commercial name                          : Dolby Digital
  55. Codec ID                                 : A_AC3
  56. Duration                                 : 1 h 48 min
  57. Bit rate mode                            : Constant
  58. Bit rate                                 : 448 kb/s
  59. Channel(s)                               : 6 channels
  60. Channel layout                           : L R C LFE Ls Rs
  61. Sampling rate                            : 48.0 kHz
  62. Frame rate                               : 31.250 FPS (1536 SPF)
  63. Compression mode                         : Lossy
  64. Stream size                              : 347 MiB (3%)
  65. Title                                    : English
  66. Language                                 : English
  67. Service kind                             : Complete Main
  68. Default                                  : No
  69. Forced                                   : No

  70. Text #1
  71. ID                                       : 4
  72. Format                                   : UTF-8
  73. Codec ID                                 : S_TEXT/UTF8
  74. Codec ID/Info                            : UTF-8 Plain Text
  75. Duration                                 : 1 h 43 min
  76. Bit rate                                 : 31 b/s
  77. Count of elements                        : 797
  78. Stream size                              : 24.1 KiB (0%)
  79. Title                                    : English Forced
  80. Language                                 : English
  81. Default                                  : Yes
  82. Forced                                   : Yes

  83. Text #2
  84. ID                                       : 5
  85. Format                                   : UTF-8
  86. Codec ID                                 : S_TEXT/UTF8
  87. Codec ID/Info                            : UTF-8 Plain Text
  88. Duration                                 : 1 h 43 min
  89. Bit rate                                 : 35 b/s
  90. Count of elements                        : 869
  91. Stream size                              : 26.6 KiB (0%)
  92. Title                                    : English SDH
  93. Language                                 : English
  94. Default                                  : No
  95. Forced                                   : No

  96. Text #3
  97. ID                                       : 6
  98. Format                                   : PGS
  99. Muxing mode                              : zlib
  100. Codec ID                                 : S_HDMV/PGS
  101. Codec ID/Info                            : Picture based subtitle format used on BDs/HD-DVDs
  102. Duration                                 : 1 h 43 min
  103. Bit rate                                 : 20.2 kb/s
  104. Count of elements                        : 1594
  105. Stream size                              : 15.0 MiB (0%)
  106. Title                                    : English Forced PGS
  107. Language                                 : English
  108. Default                                  : No
  109. Forced                                   : No

  110. Text #4
  111. ID                                       : 7
  112. Format                                   : PGS
  113. Muxing mode                              : zlib
  114. Codec ID                                 : S_HDMV/PGS
  115. Codec ID/Info                            : Picture based subtitle format used on BDs/HD-DVDs
  116. Duration                                 : 1 h 43 min
  117. Bit rate                                 : 22.5 kb/s
  118. Count of elements                        : 1738
  119. Stream size                              : 16.6 MiB (0%)
  120. Title                                    : English SDH PGS
  121. Language                                 : English
  122. Default                                  : No
  123. Forced                                   : No

  124. Text #5
  125. ID                                       : 8
  126. Format                                   : PGS
  127. Muxing mode                              : zlib
  128. Codec ID                                 : S_HDMV/PGS
  129. Codec ID/Info                            : Picture based subtitle format used on BDs/HD-DVDs
  130. Duration                                 : 1 h 43 min
  131. Bit rate                                 : 24.2 kb/s
  132. Count of elements                        : 1694
  133. Stream size                              : 17.9 MiB (0%)
  134. Title                                    : Spanish PGS
  135. Language                                 : Spanish
  136. Default                                  : No
  137. Forced                                   : No

  138. Menu
  139. 00:00:00.000                             : en:Chapter 01
  140. 00:06:59.377                             : en:Chapter 02
  141. 00:14:31.871                             : en:Chapter 03
  142. 00:19:19.200                             : en:Chapter 04
  143. 00:26:21.538                             : en:Chapter 05
  144. 00:33:25.962                             : en:Chapter 06
  145. 00:39:09.055                             : en:Chapter 07
  146. 00:46:36.335                             : en:Chapter 08
  147. 00:52:12.046                             : en:Chapter 09
  148. 00:57:45.295                             : en:Chapter 10
  149. 01:05:50.155                             : en:Chapter 11
  150. 01:13:16.183                             : en:Chapter 12
  151. 01:24:07.042                             : en:Chapter 13
  152. 01:32:24.372                             : en:Chapter 14
  153. 01:38:01.876                             : en:Chapter 15
  154. 01:42:01.198                             : en:Chapter 16
复制代码

e5a32cd3ea1feec4ccbcfd623c0b7844.jpeg

蓝光高清网提示您 点击下方附件名称 即可开始下载

一代宗師 The.Grandmaster.2013.US.CUT.1080p.BluRay.x264-YAMG 10.31GB
The.Grandmaster.2013.US.CUT.1080p.BluRay.x264-YAMG.torrent (13.65 KB)
加入蓝光高清网VIP会员  无限制下载本站所有资源---点这里

资源下载、资源播放、字幕使用、无法下载等常见问题---点这里
回复

使用道具 举报

全部回复5

wangzhang3手机认证 发表于 2022-1-14 18:25:34

wangzhang3 沙发

2022-1-14 18:25:34

很经典的电影,支持,谢谢分享
回复 支持 反对

使用道具 举报

PCHUN 发表于 2022-1-15 00:11:29

PCHUN 板凳

2022-1-15 00:11:29

Thanks for sharing
回复 支持 反对

使用道具 举报

谁与争锋 发表于 2022-1-15 13:12:07

谁与争锋 地板

2022-1-15 13:12:07

说句老实话,这部电影没有甄子丹的那部好看。
回复 支持 反对

使用道具 举报

浪天涯 发表于 2022-1-16 08:26:56

浪天涯 5#

2022-1-16 08:26:56

很经典的电影,支持,谢谢分享
回复 支持 反对

使用道具 举报

笑沧海手机认证 发表于 5 天前

笑沧海 6#

5 天前

很有仪式感的电影 气场不错的
回复 支持 反对

使用道具 举报

发表回复

您需要登录后才可以回帖 登录 | 立即注册

返回列表 本版积分规则

:
:
1371333023@qq.com
:
点击这里给我发消息
:
http://
:
未填写

主题97224

帖子97728

积分183041

最新推荐

  • 轮回 4k.Samsara.2011.2160p.WEB-DL.x265.1

    简 介   灵动的音符与舞步,天真无邪且

  • 爱情狂奔 Love.On.The.Run.1979.FRENCH.108

    ◎译  名 爱情狂奔 / 爱情飞逝 / 爱情奔跑 /

  • 偷吻 Stolen.Kisses.1968.1080p.BluRay.x26

    ◎译  名 偷吻 / Stolen Kisses◎片  名 Ba

  • 永恒族 Eternals.2021.1080p.BluRay.x264.D

    ◎译  名 永恒族 / 永恒神族 / The Eternals◎

  • 大红狗克里弗 Clifford.The.Big.Red.Dog.20

    ◎译  名 大红狗克里弗 / 赤BIG灵灵狗(港)◎片

  • WWE:强者生存 2021 WWE.Survivor.Series.2

    ◎译  名 WWE:强者生存 2021◎片  名 WWE

  • 豪门血劫 The.Banker.1989.1080p.BluRay.x2

    ◎译  名 豪门血劫 / 银行家◎片  名 The B

  • 破产姐妹 2.Broke.Girls.S05.1080p.HDTV.X2

    影片参数 蓝光高清网提示您 点击下方附件名称 即

  • 爱情是狗娘 4k.Amores.Perros.2000.SPANISH

    简 介   三个与狗有关的故事,三段令人

  • 四百下 / 胡作非为 / The 400 Blows/四百击

    简 介   作文课上,安托万(Jean-Pierre

  • 世界之美THE BEAUTY OF THE WORLD in 8K UL

    影片参数 蓝光高清网提示您 点击下方附件名

  • 8K(60p)VIDEOS UltraHD _ Realistic 8K HD

    影片参数 蓝光高清网提示您 点击下方附件名

  • 8K (120 FPS) VIDEOS _ World 8K Videos H

    影片参数 蓝光高清网提示您 点击下方附件

  • 8K (60 FPS) VIDEOS _ Beauty of WorldH

    影片参数 蓝光高清网提示您 点击下方

  • 变种动物园 怪奇兽乐园(台)Cryptozoo.2021

    ◎译  名 变种动物园 / 怪奇兽乐园(台)◎片 

  • 红圈 Le.Cercle.Rouge.1970.REMASTERED.108

    ◎译  名 红圈 / 血环 / 仁义血环 / 死性不改

  • 陆阿采与黄飞鸿 Challenge.of.the.Masters.

    ◎译  名 陆阿采与黄飞鸿 / Challenge of the

  • 唐人街小子 Chinatown.Kid.1977.Alternate.

    ◎译  名 唐人街小子 / 唐人街功夫小子 / 以毒

  • 发帖

  • 在线客服

  • 微信

  • 客户端

  • 返回顶部