蓝光高清网

开启左侧

性感的吸引力/性吸引力4K.Sex.Appeal.2022.2160p.HULU.WEB-DL.x265.10bit.SDR.DDP5.1-4k电影下载—8.13 GB

[复制链接]

2022-1-14 19:33:51 6296 0

蓝鸟 发表于 2022-1-14 19:33:51 |阅读模式

蓝鸟 楼主

2022-1-14 19:33:51

性吸引力
上映时间:2022年
类型:喜剧 
地区:美国 
导演:Talia Osteen
主演:米卡·阿卜杜拉 / 杰克·索特
画质标准:4K SDR  封装音轨:Dolby TrueHD 5.1 Dolby Atmos 
豆瓣评分:无评分
简       介
+ ]9 w7 C6 t" K
/ w( W' v5 P/ D# [' m* b  米卡·阿卜杜拉(《青春相对论》)、杰克·索特([社交网络追爱记])将主演青春喜剧[吸引力](Sex Appeal,暂译)。该片由塔莉亚·奥斯汀([帮帮我])执导,塔特·汉约克操刀剧本。故事讲述功成名就的女明星艾弗里·汉森-怀特与男友异地相恋,当男友暗示想在即将到来的舞会上进一步发展两人的关系后,她开始面对自己的欲望并且学习爱情的模式,过程中,她意识到感情需要的是感性而不是理性。
# F4 w+ C+ Y( ^( U8 r+ \. @# B
. e4 `5 Z' r+ _

- u, V) t5 S) A9 ~影片参数5 G* r( ?! B/ U9 a$ o8 t9 I
性感的吸引力/性吸引力4K.Sex.Appeal.2022.2160p.HULU.WEB-DL.x265.10bit.SDR.DDP5.1-4k电影信息
- d0 R1 [' ?! f% xVideo. D+ J1 n0 R! R/ Y) T7 @
ID : 1# O) i6 z; ~: o# B( p7 z) f
Format : HEVC' d& W% A* d! C. \% R
Format/Info : High Efficiency Video Coding
0 x* D4 P% [: k! f7 z' XFormat profile : Main 10@L5.1@Main
7 q0 ~" E6 b3 j3 Q( u! CCodec ID : V_MPEGH/ISO/HEVC
# V$ G% n  F& q9 S/ D. T9 ~1 bDuration : 1 h 30 min: K) q4 i2 M5 k+ q- f1 G- y
Bit rate : 12.6 Mb/s
: a4 I+ D2 w% EWidth : 3 840 pixels
0 n7 {  @' J0 s- C( Z. H3 CHeight : 2 160 pixels" R; P6 t; W8 g0 R7 s- ^1 d
Display aspect ratio : 16:9) p2 n" {( T, P
Frame rate mode : Constant7 M+ z, T5 C4 B  d& O- w7 W& C
Frame rate : 24.000 FPS1 \& E' }$ x+ _' J  {# M" \$ M
Color space : YUV
  E# k9 L1 Z* q) J; ?Chroma subsampling : 4:2:0
( F. `" o- U/ F; j9 J0 S& ~Bit depth : 10 bits
& \% i! |, p; ]) }Bits/(Pixel*Frame) : 0.063) ^5 [5 [$ Q+ F! M& D- A9 f- z
Stream size : 7.97 GiB (98%)- h+ T* \9 ]$ |( `. ^% Q6 U
Default : Yes1 w4 s( ]. S. R
Forced : No
% g5 m- g  F2 u. x& z
2 n5 c! X- h2 W( u; T

) d3 ^! g0 i. m+ a$ mAudio
9 o) r& n9 I, hID : 2
& Q- }7 V# a0 Z+ iFormat : E-AC-3/ d/ W! L8 }  a+ V
Format/Info : Enhanced AC-3
: `5 }; [$ f- W& W1 J8 @Commercial name : Dolby Digital Plus
( h( W* V/ k" B8 X0 jCodec ID : A_EAC34 F9 j% j& E8 N4 r7 _
Duration : 1 h 30 min
) @" O' ]4 T. I; I6 o' yBit rate mode : Constant* R& P6 V/ N( \  j2 B4 [. o
Bit rate : 256 kb/s
" X1 l6 v4 J8 w: W1 i; }$ x$ EChannel(s) : 6 channels
2 C: W; @& A8 ^# yChannel layout : L R C LFE Ls Rs0 h8 J" O# g+ F' A8 V) y8 h
Sampling rate : 48.0 kHz- }: i- U4 [! K# n, q& s7 X) u
Frame rate : 31.250 FPS (1536 SPF)
8 D# Z) f' }; i! c8 r7 r$ Y; GCompression mode : Lossy
0 e4 R2 c/ T; Z- W5 z5 LStream size : 166 MiB (2%)1 y$ `: h6 a8 {0 p) w2 O
Language : English( V5 I5 m! y; F5 V) k1 e
Service kind : Complete Main
7 F, ~. m5 @: i, b5 i! g3 @4 BDefault : Yes
4 }  I7 w  M" s5 e# `: nForced : No
: D3 c+ x* _% S
; P6 W5 o- Y0 Q& W
% z- u5 S: C$ _' W
Text #1
9 P! i8 t- N% I0 r  i: K. \; f8 \ID : 3
( V2 U( H6 l( {& ]& BFormat : UTF-8+ q7 f- a* i, g" W. b6 D
Codec ID : S_TEXT/UTF8# }( z% U9 g8 b! i
Codec ID/Info : UTF-8 Plain Text
- A/ }8 c6 Z' r4 |& O7 QDuration : 1 h 30 min
3 N+ Q9 M$ S/ D+ X+ Q# eBit rate : 89 b/s
6 i, @0 Q6 ^- D/ n7 wCount of elements : 16879 |; h$ P5 Q# Z" l0 Z7 m1 ]
Stream size : 59.0 KiB (0%)
8 j8 p- `) J8 O$ `! g1 C, @Language : English6 }3 C0 z' V1 G+ p  j
Default : No& R7 M9 u9 u: U. D# @9 W- ~
Forced : No
- S6 X2 H7 S% y; U  M' l3 f, h5 B: f" K% U* R7 p

* y  U8 [! A* N$ F0 ~Text #2
) D+ I3 R, h9 a+ jID : 4
. i7 O( W4 l0 H' F8 X% f! cFormat : UTF-8
8 n! S1 [9 x4 c3 c8 p0 l* h  O' \Codec ID : S_TEXT/UTF80 ?  Q! F, o  z9 M
Codec ID/Info : UTF-8 Plain Text3 R+ f6 N# v$ |/ F9 _
Duration : 1 h 30 min( O# O4 a3 m" u4 A0 Q
Bit rate : 99 b/s
0 ]" P6 X9 g4 q5 [. gCount of elements : 1866+ ^. s3 w: C% r  M
Stream size : 65.5 KiB (0%); q- r! N9 s. R+ L
Title : SDH6 b2 x  P* U( g
Language : English! v+ T, |8 B5 R2 Y
Default : No
) r" ]" J, {: jForced : No* D: K1 V( e1 A$ G
# o) v3 l, Z; K1 K3 K
( N* x; d; b. {  O
Text #3
8 G' G0 i7 \4 Y9 ^$ q! Z9 sID : 51 D% h( P) e; V. e% x1 y
Format : UTF-8
" W0 P) V! a* QCodec ID : S_TEXT/UTF8
2 Z* P* Z2 v2 p, W4 }7 _Codec ID/Info : UTF-8 Plain Text
( b3 t) N( i% `# N* `* u7 JDuration : 1 h 28 min
. w1 Y6 E" S" E1 G0 i; wBit rate : 105 b/s8 B& Y+ X7 O2 i+ {
Count of elements : 1869
0 w" [7 c2 c; ^. e: O* }Stream size : 68.9 KiB (0%)
5 F$ O7 u2 I$ u8 Q/ B# _. fTitle : SDH
) |  F# e' y* u2 _3 W$ c  Z3 nLanguage : Spanish
- u3 O  p; f3 }Default : No* e- W1 u: f4 G; R7 ]
Forced : No

% E9 F3 G( R( l9 j: Z, v& `  b5 Y; |5 U9 ]" R$ E8 c
蓝光高清网提示您 点击下方附件名称 即可开始下载
" o6 _7 F3 x" @9 O% _. y1 u0 l8 o' j& K1 I) L! @# Z0 Q0 A
* k" X9 D: |8 Z1 ~: E
性感的吸引力/性吸引力4K.Sex.Appeal.2022.2160p.HULU.WEB-DL.x265.10bit.SDR.DDP5.1-4K电影下载# N% Z- W) M& `) n' K1 h
7 y0 @& y; K4 |0 G$ B  a& t
性吸引力4K.Sex.Appeal.2022.2160p.HULU.WEB-DL.x265.10bit.SDR.DDP5.1【8.13 GB】! p& V) Z) [& A- H& V4 P9 \
性吸引力4K.Sex.Appeal.2022.2160p.HULU.WEB-DL.x265.10bit.SDR.DDP5.1-TEPES.torrent (20.96 KB)
加入蓝光高清网VIP会员  无限制下载本站所有资源---点这里

资源下载、资源播放、字幕使用、无法下载等常见问题---点这里
回复

使用道具 举报

发表回复

您需要登录后才可以回帖 登录 | 立即注册

返回列表 本版积分规则

  • 发帖

  • 在线客服

  • 微信

  • 客户端

  • 返回顶部