蓝光高清网

开启左侧

清道夫电影版 / Ray Donovan: The Movie/清道夫:布局4K.Ray.Donovan.The.Movie.2022.2160p.WEB-DL.x265.10bit.HDR.DDP5.1-电影下载-10.65 GB

[复制链接]

2022-1-15 12:54:30 5034 2

蓝鸟 发表于 2022-1-14 19:41:45 |阅读模式

蓝鸟 楼主

2022-1-14 19:41:45

清道夫:布局
上映时间:2022年
类型:剧情 
地区:美国 
导演:戴维·霍兰德
主演:列维·施瑞博尔 / 凯瑞斯·多西 / 强·沃特 / 凯瑞·康顿 / 埃迪·马森
画质标准:4K HDR  封装音轨:Dolby TrueHD 5.1 Dolby Atmos 
豆瓣评分:无评分
简       介$ A; r. O/ e: C

1 e* l% ^) P) Y       列维·施瑞博尔主演的Showtime剧集《清道夫》将推出电影版!施瑞博尔将回归主演,并将与剧集运作人戴维·霍兰德共同操刀剧本,霍兰德担任该片导演。强·沃特、凯瑞斯·多西也将回归出演。该片故事将承接《清道夫》第七季,米奇继续出手,雷决心在他造成更多屠杀之前找到他并阻止他。该片计划于今年晚些时候在纽约开拍。7 f; u8 I& r( Y* ?# a" l

1 r- E$ D' ^) r. Y3 q1 o) S1 |

+ d/ x+ }) k, ~影片参数
/ m0 z9 ^; n! `- x9 L$ T* T. W
清道夫电影版 / Ray Donovan: The Movie/清道夫:布局4K.Ray.Donovan.The.Movie.2022.2160p.WEB-DL.x265.10bit.HDR.DDP5.1-电影信息
8 m8 b3 N- e$ s+ ^9 mVideo2 o( c1 s5 m, G, }. f6 c
ID : 1: o' `1 Q) G: d
Format : HEVC2 ~9 a+ i3 s$ V5 q# s  I  V
Format/Info : High Efficiency Video Coding
% ^: p" u5 d- g- I6 Z5 O) SFormat profile : Main 10@L5@Main
5 X4 K) W' [8 p: }) ^2 nHDR format : SMPTE ST 2086, HDR10 compatible$ y8 l  l' C7 T1 Z
Codec ID : V_MPEGH/ISO/HEVC
# Z0 \1 y1 F* H( W* KDuration : 1 h 39 min4 e4 j$ }: Q* W  ^% Z
Bit rate : 14.6 Mb/s
2 x" z' F' I4 Q2 U6 [8 m5 iWidth : 3 840 pixels9 e2 B1 [3 W: d/ M
Height : 2 160 pixels
' y5 x2 ~' h; v4 Z$ k( n$ VDisplay aspect ratio : 16:9
. D0 m0 H( k" ]: g# E) m( EFrame rate mode : Constant
6 }+ u4 \9 h& @' Z( \. L3 o. M+ HFrame rate : 23.976 (24000/1001) FPS( {4 B7 p6 n/ T. T4 R5 V# l% ^+ E
Color space : YUV
3 w* k" Y. y  s3 U2 A6 eChroma subsampling : 4:2:00 f0 ~& p' L4 p& M/ n4 W3 j
Bit depth : 10 bits
7 h$ e6 y) U( Y; bBits/(Pixel*Frame) : 0.074; z: \, L) s9 k  C+ K0 f
Stream size : 10.2 GiB (96%)2 U) p/ M* {- W- l; ^$ S; q
Writing library : x265 3.4hy:[Linux][GCC 7.5.0][64 bit] 10bit2 a; C) \. O/ {
Encoding settings : cpuid=1111039 / frame-threads=6 / no-wpp / no-pmode / no-pme / no-psnr / no-ssim / log-level=2 / input-csp=1 / input-res=3840x2160 / interlace=0 / total-frames=0 / level-idc=0 / high-tier=1 / uhd-bd=0 / ref=4 / no-allow-non-conformance / repeat-headers / annexb / aud / hrd / info / hash=0 / no-temporal-layers / no-open-gop / min-keyint=48 / keyint=48 / gop-lookahead=0 / bframes=4 / b-adapt=2 / b-pyramid / bframe-bias=0 / rc-lookahead=48 / lookahead-slices=4 / scenecut=0 / hist-scenecut=0 / radl=0 / no-splice / no-intra-refresh / ctu=64 / min-cu-size=8 / rect / no-amp / max-tu-size=32 / tu-inter-depth=1 / tu-intra-depth=1 / limit-tu=0 / rdoq-level=2 / dynamic-rd=0.00 / no-ssim-rd / signhide / no-tskip / nr-intra=100 / nr-inter=400 / no-constrained-intra / strong-intra-smoothing / max-merge=3 / limit-refs=3 / limit-modes / me=3 / subme=3 / merange=57 / temporal-mvp / no-frame-dup / no-hme / weightp / no-weightb / no-analyze-src-pics / deblock=0:0 / sao / no-sao-non-deblock / rd=4 / selective-sao=4 / no-early-skip / rskip / no-fast-intra / no-tskip-fast / no-cu-lossless / no-b-intra / no-splitrd-skip / rdpenalty=0 / psy-rd=0.00 / psy-rdoq=1.00 / no-rd-refine / no-lossless / cbqpoffs=0 / crqpoffs=3 / rc=abr / bitrate=15000 / qcomp=0.60 / qpstep=4 / stats-write=0 / stats-read=2 / cplxblur=20.0 / qblur=0.5 / vbv-maxrate=18000 / vbv-bufsize=12000 / vbv-init=0.6 / vbv-end=0.6 / vbv-end-fr-adj=0.0 / ipratio=1.40 / pbratio=1.30 / aq-mode=2 / aq-strength=1.00 / cutree / zone-count=0 / no-strict-cbr / qg-size=32 / no-rc-grain / qpmax=69 / qpmin=0 / no-const-vbv / sar=1 / overscan=0 / videoformat=5 / range=0 / colorprim=9 / transfer=16 / colormatrix=9 / chromaloc=0 / display-window=0 / master-display=G(13250,34500)B(7500,3000)R(34000,16000)WP(15635,16450)L(10000000,1) / cll=0,0 / min-luma=0 / max-luma=1023 / log2-max-poc-lsb=8 / vui-timing-info / vui-hrd-info / no-concatenation / slices=1 / no-opt-qp-pps / no-opt-ref-list-length-pps / no-multi-pass-opt-rps / scenecut-bias=0.05 / hist-threshold=0.01 / no-opt-cu-delta-qp / no-aq-motion / hdr10 / no-hdr10-opt / no-dhdr10-opt / no-idr-recovery-sei / analysis-reuse-level=0 / analysis-save-reuse-level=0 / analysis-load-reuse-level=0 / scale-factor=0 / refine-intra=0 / refine-inter=0 / refine-mv=1 / refine-ctu-distortion=0 / no-limit-sao / ctu-info=0 / no-lowpass-dct / refine-analysis-type=0 / copy-pic=1 / max-ausize-factor=1.0 / no-dynamic-refine / no-single-sei / no-hevc-aq / no-svt / no-field / qp-adaptation-range=1.00 / no-scenecut-aware-qpconformance-window-offsets / right=0 / bottom=0 / decoder-max-rate=07 E' j( f+ e1 E* O% b+ `
Default : Yes4 u8 A; M5 O) v4 v! m3 ^6 c% e
Forced : No4 D3 @3 x8 R6 V: z! P
Color range : Limited
3 O( ]8 b# Z" l6 p/ g- CColor primaries : BT.2020
% ?! ^. ~- G8 iTransfer characteristics : PQ
$ T! A3 S! j7 {6 B& }5 AMatrix coefficients : BT.2020 non-constant3 q6 p4 v6 g6 ^7 _* s+ _' u
Mastering display color primaries : Display P3
; r$ _2 {( l9 nMastering display luminance : min: 0.0001 cd/m2, max: 1000 cd/m2
  h8 T- H; e' W% N2 f5 o$ r5 w6 N: L0 J% N3 P$ l, }

9 Q1 m1 W$ s5 W, LAudio( e8 c. i# \% u! B& W/ l& A
ID : 2
9 J; _1 D- l+ n$ \  pFormat : E-AC-3, P; k8 x5 t3 O4 g" g$ P
Format/Info : Enhanced AC-3
/ U5 G% x2 v$ GCommercial name : Dolby Digital Plus
9 t  ^) [& S7 T/ cCodec ID : A_EAC36 m5 }8 v6 A8 g5 z3 r
Duration : 1 h 39 min
, N0 @/ [& q' Y4 FBit rate mode : Constant
$ _  R+ P  {7 |0 QBit rate : 640 kb/s3 e. k3 M2 }" O: l" S# c
Channel(s) : 6 channels
9 S9 P0 L+ P3 x% ?3 FChannel layout : L R C LFE Ls Rs. w$ |4 s. d( ~+ M, T
Sampling rate : 48.0 kHz
: Y7 a/ @4 Y' f+ xFrame rate : 31.250 FPS (1536 SPF)
9 y8 W2 G; w2 \8 z/ _Compression mode : Lossy6 B9 q  O3 B4 a* O2 V4 W5 C
Delay relative to video : 28 ms
6 I9 Q9 _) n( E; j4 [Stream size : 457 MiB (4%)
. J: a1 u1 z* ^3 G  JLanguage : English
$ Z5 u6 j# {5 I# J/ SService kind : Complete Main$ e- Y; \8 G# z
Default : Yes
/ g1 C- Y- n/ y. e2 QForced : No
" l2 \5 t9 [) B9 ?4 c" x2 |$ N# Y0 Q: G
: x! x% i8 ]3 n/ M0 Q
Text #12 O* c$ n; F, p" q& _# n# H
ID : 3
! \; [! Z+ L6 `. s/ |Format : UTF-83 \$ P  X: \" s8 ~3 B6 V
Codec ID : S_TEXT/UTF8' l3 m- H5 ^, Y& C% E! ], c; y, N
Codec ID/Info : UTF-8 Plain Text) g' A0 I# q2 |
Duration : 1 h 37 min
! Z2 c1 }$ p9 Q9 n4 JBit rate : 50 b/s
6 B; x  M  |$ F0 ~. s+ v  P# t; RCount of elements : 1082. C7 U2 b, d5 W* r  ]- _
Stream size : 36.6 KiB (0%)0 l; U0 |+ @" O" s* D$ P4 V% u
Language : English+ V5 S2 Q, M" y7 ]7 e- o: N* \
Default : No# @; k1 b; k6 `# L, B- V3 G6 r$ T6 k
Forced : No0 G2 ^" c$ |( i6 }. P

* {8 z6 X1 g4 Y1 G! R6 j( _5 G8 b

9 e! `) b  r4 ~3 ^% @. WText #2
  |+ q! Z- s8 @9 k! \5 A2 YID : 4
" j0 D- M; {* H( y5 a; i' x2 wFormat : UTF-8
0 ]0 ]! k4 }0 Q. |( tCodec ID : S_TEXT/UTF8& @) }! Z0 b$ I7 |. ?+ n
Codec ID/Info : UTF-8 Plain Text; X1 S# j5 n: j" k' \7 X& k
Duration : 1 h 39 min
# o$ E5 L& s- M* T7 w: @) H2 QBit rate : 136 b/s
  @& z1 V* B3 t0 [2 v& mCount of elements : 1362
! w4 p( \$ F+ y$ {6 J& c, MStream size : 99.3 KiB (0%)$ u7 O$ r; y) w4 H7 m2 j% z- L
Title : SDH
, g4 K, c* r7 Y& \' k8 G0 RLanguage : English4 t- M4 M" e1 o% L0 q% g( j; \
Default : No2 {' n7 t! k" D9 l/ u+ o( B; B6 c
Forced : No

! R! y1 E' d9 G, H+ j1 V9 ~! k. ?. c4 R) [6 S
蓝光高清网提示您 点击下方附件名称 即可开始下载
" ^5 t7 K& H9 @5 P- ~( e* T6 k1 N5 p
9 q8 R/ B8 ~5 D8 {

3 P# p( {1 R) s, D/ r$ B% G多版本下载时请注意区分
3 r9 I. s$ _9 e# n- \4 ^- ?0 x  e
) Y# z+ e5 v7 B3 m& Y& F" V3 N+ x
7 a! p- D% l% e8 b- k* V8 g7 E
清道夫电影版 / Ray Donovan: The Movie/清道夫:布局4K.Ray.Donovan.The.Movie.2022.2160p.WEB-DL.x265.10bit.HDR.DDP5.1-4k电影下载; U) l7 k% ^1 d3 }

6 \9 ^2 E7 p2 s/ m' I* y; g清道夫:布局4K.Ray.Donovan.The.Movie.2022.2160p.WEB-DL.x265.10bit.HDR.DDP5.1【10.65 GB】0 D2 s$ {* p2 J! b& E# f
清道夫:布局4K.Ray.Donovan.The.Movie.2022.2160p.WEB-DL.x265.10bit.HDR.DDP5.1-TEPES.torrent (13.97 KB)
加入蓝光高清网VIP会员  无限制下载本站所有资源---点这里

资源下载、资源播放、字幕使用、无法下载等常见问题---点这里
回复

使用道具 举报

全部回复2

再会未来 发表于 2022-1-15 09:28:13

再会未来 沙发

2022-1-15 09:28:13

谢谢分享
回复

使用道具 举报

H837189691手机认证 发表于 2022-1-15 12:54:30 来自手机

H837189691 板凳

2022-1-15 12:54:30

好看不,回去下载看看,好看推荐
回复 支持 反对

使用道具 举报

发表回复

您需要登录后才可以回帖 登录 | 立即注册

返回列表 本版积分规则

  • 发帖

  • 在线客服

  • 微信

  • 客户端

  • 返回顶部