蓝光高清网

开启左侧

[奇幻] 魔幻铁路历险记/托马斯小火车电影版 Thomas.and.the.Magic.Railroad.2000.1080p.BluRay.x264-YAMG 11.27GB

[复制链接]

2022-1-15 00:10:27 642 1

image.png

◎译  名 魔幻铁路历险记/托马斯小火车电影版
◎片  名 Thomas and the Magic Railroad
◎年  代 2000
◎产  地 英国,美国
◎类  别 家庭 / 奇幻
◎语  言 英语
◎上映日期 2000-07-14
◎豆瓣评分 /10 from 0 users
◎片  长 85 分钟
◎导  演 布瑞特·奥克罗夫特 Britt Allcroft
◎编  剧 布瑞特·奥克罗夫特 Britt Allcroft / 雷夫·W·奥德里 Rev. W. Awdry
◎主  演 玛拉·威尔逊 Mara Wilson
       亚历克·鲍德温 Alec Baldwin
       彼得·方达 Peter Fonda
       拉塞尔·敏斯 Russell Means
       科鲁姆·费奥瑞 Colm Feore
       Robert Black Robert Black
       布瑞特·奥克罗夫特 Britt Allcroft
       科迪·麦克马斯 Cody McMains
       Kevin Frank Kevin Frank
       Didi Conn Didi Conn
       苏珊·罗曼 Susan Roman
       Michael E. Rodgers Michael E. Rodgers
       罗伯特·丁克勒 Robert Tinkler
       尼尔·克容 Neil Crone
       Robbie Bugbee Robbie Bugbee
       罗莉·哈利尔 Lori Hallier
◎简  介


  《魔幻铁路历险记》由最受孩子们欢迎的电视连续剧《火车头托马斯和他的朋友们》改编而成。该片秉承了原片无与伦比的魔法魅力,而且首次采用宽荧幕的形式向观众展示这种"半真人演绎半动画制作"的新派电影。  11岁的Lily(由Mara Wilson扮演)坐火车去她爷爷家玩。她爷爷(由Peter Fonda扮演)年轻时可是一名快乐的铁路工程师,但是现在过着孤独的生活。没想到Lily坐错了火车,最后在一个景色优美的小镇下了车。那个小镇名为" 美丽时光", 在那里Lily遇上了一位会使魔法的列车长(由Alec Baldwin扮演),跟着他又上了火车,沿着"魔幻铁路"开始去苏达岛的探险之旅。要知道苏达岛可是一个玩具王国,可爱的Thomas(迷你型蓝色蒸气车头玩具)就住在那,但是现在这个"世外桃源"正在受到贪婪和愚昧的侵蚀。于是Lily 和Thomas联手,在小狗Mutt、小男孩Patch等其他许多好朋友们的帮助下,共同惩治坏蛋,最终使故事有了一个圆满的结尾。
  1. Video
  2. ID                                       : 1
  3. Format                                   : AVC
  4. Format/Info                              : Advanced Video Codec
  5. Format profile                           : [email protected]
  6. Format settings                          : CABAC / 4 Ref Frames
  7. Format settings, CABAC                   : Yes
  8. Format settings, Reference frames        : 4 frames
  9. Codec ID                                 : V_MPEG4/ISO/AVC
  10. Duration                                 : 1 h 25 min
  11. Bit rate                                 : 16.4 Mb/s
  12. Width                                    : 1 920 pixels
  13. Height                                   : 1 040 pixels
  14. Display aspect ratio                     : 1.85:1
  15. Frame rate mode                          : Constant
  16. Frame rate                               : 23.976 (24000/1001/189150) FPS
  17. Color space                              : YUV
  18. Chroma subsampling                       : 4:2:0
  19. Bit depth                                : 8 bits
  20. Scan type                                : Progressive
  21. Bits/(Pixel*Frame)                       : 0.344
  22. Stream size                              : 9.87 GiB (88%)
  23. Writing library                          : x264 core 164 r3075 66a5bc1
  24. Encoding settings                        : cabac=1 / ref=4 / deblock=1:-3:-3 / analyse=0x3:0x133 / me=umh / subme=10 / psy=1 / psy_rd=1.00:0.00 / mixed_ref=1 / me_range=32 / chroma_me=1 / trellis=2 / 8x8dct=1 / cqm=0 / deadzone=21,11 / fast_pskip=0 / chroma_qp_offset=-2 / threads=24 / lookahead_threads=4 / sliced_threads=0 / nr=0 / decimate=0 / interlaced=0 / bluray_compat=0 / constrained_intra=0 / bframes=8 / b_pyramid=2 / b_adapt=2 / b_bias=0 / direct=3 / weightb=1 / open_gop=0 / weightp=2 / keyint=250 / keyint_min=23 / scenecut=40 / intra_refresh=0 / rc=crf / mbtree=0 / crf=17.0 / qcomp=0.60 / qpmin=0 / qpmax=69 / qpstep=4 / ip_ratio=1.40 / pb_ratio=1.30 / aq=3:0.60
  25. Language                                 : English
  26. Default                                  : Yes
  27. Forced                                   : No
  28. Color range                              : Limited
  29. Matrix coefficients                      : BT.709

  30. Audio
  31. ID                                       : 2
  32. Format                                   : DTS XLL
  33. Format/Info                              : Digital Theater Systems
  34. Commercial name                          : DTS-HD Master Audio
  35. Codec ID                                 : A_DTS
  36. Duration                                 : 1 h 25 min
  37. Bit rate mode                            : Variable
  38. Bit rate                                 : 2 303 kb/s
  39. Channel(s)                               : 6 channels
  40. Channel layout                           : C L R Ls Rs LFE
  41. Sampling rate                            : 48.0 kHz
  42. Frame rate                               : 93.750 FPS (512 SPF)
  43. Bit depth                                : 24 bits
  44. Compression mode                         : Lossless
  45. Stream size                              : 1.38 GiB (12%)
  46. Title                                    : English
  47. Language                                 : English
  48. Default                                  : Yes
  49. Forced                                   : No

  50. Text #1
  51. ID                                       : 3
  52. Format                                   : UTF-8
  53. Codec ID                                 : S_TEXT/UTF8
  54. Codec ID/Info                            : UTF-8 Plain Text
  55. Duration                                 : 1 h 24 min
  56. Bit rate                                 : 63 b/s
  57. Count of elements                        : 1256
  58. Stream size                              : 39.3 KiB (0%)
  59. Title                                    : English
  60. Language                                 : English
  61. Default                                  : No
  62. Forced                                   : No

  63. Text #2
  64. ID                                       : 4
  65. Format                                   : UTF-8
  66. Codec ID                                 : S_TEXT/UTF8
  67. Codec ID/Info                            : UTF-8 Plain Text
  68. Duration                                 : 1 h 25 min
  69. Bit rate                                 : 69 b/s
  70. Count of elements                        : 1370
  71. Stream size                              : 43.4 KiB (0%)
  72. Title                                    : English SDH
  73. Language                                 : English
  74. Default                                  : No
  75. Forced                                   : No

  76. Text #3
  77. ID                                       : 5
  78. Format                                   : PGS
  79. Muxing mode                              : zlib
  80. Codec ID                                 : S_HDMV/PGS
  81. Codec ID/Info                            : Picture based subtitle format used on BDs/HD-DVDs
  82. Duration                                 : 1 h 25 min
  83. Bit rate                                 : 38.5 kb/s
  84. Count of elements                        : 1910
  85. Stream size                              : 23.6 MiB (0%)
  86. Title                                    : English SDH PGS
  87. Language                                 : English
  88. Default                                  : No
  89. Forced                                   : No

  90. Menu
  91. 00:00:00.000                             : en:Chapter 01
  92. 00:08:49.571                             : en:Chapter 02
  93. 00:16:19.770                             : en:Chapter 03
  94. 00:22:11.163                             : en:Chapter 04
  95. 00:26:46.271                             : en:Chapter 05
  96. 00:29:04.534                             : en:Chapter 06
  97. 00:32:22.524                             : en:Chapter 07
  98. 00:39:31.828                             : en:Chapter 08
  99. 00:43:13.549                             : en:Chapter 09
  100. 00:47:13.247                             : en:Chapter 10
  101. 00:51:37.094                             : en:Chapter 11
  102. 00:56:26.800                             : en:Chapter 12
  103. 01:01:48.538                             : en:Chapter 13
  104. 01:07:59.450                             : en:Chapter 14
  105. 01:12:48.197                             : en:Chapter 15
  106. 01:15:13.008                             : en:Chapter 16
复制代码

f43eb220de2732ef4aafcb9fc72c7eef.jpeg

蓝光高清网提示您 点击下方附件名称 即可开始下载

魔幻铁路历险记/托马斯小火车电影版 Thomas.and.the.Magic.Railroad.2000.1080p.BluRay.x264-YAMG 11.27GB 
Thomas.and.the.Magic.Railroad.2000.1080p.BluRay.x264-YAMG.torrent (14.86 KB)
加入蓝光高清网VIP会员  无限制下载本站所有资源---点这里

资源下载、资源播放、字幕使用、无法下载等常见问题---点这里
回复

使用道具 举报

全部回复1

PCHUN 发表于 2022-1-15 00:10:27

PCHUN 沙发

2022-1-15 00:10:27

Thanks for sharing
回复 支持 反对

使用道具 举报

发表回复

您需要登录后才可以回帖 登录 | 立即注册

返回列表 本版积分规则

:
:
1371333023@qq.com
:
点击这里给我发消息
:
http://
:
未填写

主题97224

帖子97728

积分183041

最新推荐

  • 轮回 4k.Samsara.2011.2160p.WEB-DL.x265.1

    简 介   灵动的音符与舞步,天真无邪且

  • 爱情狂奔 Love.On.The.Run.1979.FRENCH.108

    ◎译  名 爱情狂奔 / 爱情飞逝 / 爱情奔跑 /

  • 偷吻 Stolen.Kisses.1968.1080p.BluRay.x26

    ◎译  名 偷吻 / Stolen Kisses◎片  名 Ba

  • 永恒族 Eternals.2021.1080p.BluRay.x264.D

    ◎译  名 永恒族 / 永恒神族 / The Eternals◎

  • 大红狗克里弗 Clifford.The.Big.Red.Dog.20

    ◎译  名 大红狗克里弗 / 赤BIG灵灵狗(港)◎片

  • WWE:强者生存 2021 WWE.Survivor.Series.2

    ◎译  名 WWE:强者生存 2021◎片  名 WWE

  • 豪门血劫 The.Banker.1989.1080p.BluRay.x2

    ◎译  名 豪门血劫 / 银行家◎片  名 The B

  • 破产姐妹 2.Broke.Girls.S05.1080p.HDTV.X2

    影片参数 蓝光高清网提示您 点击下方附件名称 即

  • 爱情是狗娘 4k.Amores.Perros.2000.SPANISH

    简 介   三个与狗有关的故事,三段令人

  • 四百下 / 胡作非为 / The 400 Blows/四百击

    简 介   作文课上,安托万(Jean-Pierre

  • 世界之美THE BEAUTY OF THE WORLD in 8K UL

    影片参数 蓝光高清网提示您 点击下方附件名

  • 8K(60p)VIDEOS UltraHD _ Realistic 8K HD

    影片参数 蓝光高清网提示您 点击下方附件名

  • 8K (120 FPS) VIDEOS _ World 8K Videos H

    影片参数 蓝光高清网提示您 点击下方附件

  • 8K (60 FPS) VIDEOS _ Beauty of WorldH

    影片参数 蓝光高清网提示您 点击下方

  • 变种动物园 怪奇兽乐园(台)Cryptozoo.2021

    ◎译  名 变种动物园 / 怪奇兽乐园(台)◎片 

  • 红圈 Le.Cercle.Rouge.1970.REMASTERED.108

    ◎译  名 红圈 / 血环 / 仁义血环 / 死性不改

  • 陆阿采与黄飞鸿 Challenge.of.the.Masters.

    ◎译  名 陆阿采与黄飞鸿 / Challenge of the

  • 唐人街小子 Chinatown.Kid.1977.Alternate.

    ◎译  名 唐人街小子 / 唐人街功夫小子 / 以毒

  • 发帖

  • 在线客服

  • 微信

  • 客户端

  • 返回顶部