蓝光高清网

开启左侧

[恐怖] 诡怪疑云 Terrified.2017.1080p.BluRay.x264-PEGASUS 7.86GB

[复制链接]

4 天前 616 2

image.png

◎译  名 诡怪疑云/Terrified/惊魂未定
◎片  名 Aterrados
◎年  代 2017
◎产  地 阿根廷
◎类  别 恐怖
◎语  言 西班牙语
◎上映日期 2017-10-27(莫比多影展) / 2018-05-03(阿根廷)
◎豆瓣评分 6.7/10 from 21501 users
◎片  长 87分钟
◎导  演 德米安·鲁格纳 Demián Rugna
◎编  剧 德米安·鲁格纳 Demián Rugna
◎主  演 阿里埃尔·查瓦里亚 Ariel Chavarría
       马克西米利亚诺·吉安尼 Maximiliano Ghione
       诺贝托·冈萨罗 Norberto Gonzalo
◎简  介


  阿根廷恐怖片。布宜诺斯艾利斯的一个社区发生了离奇事件,一名专研超自然的博士和她的同事以及一名警官决定深入调查。
◎获奖情况
  第5届豆瓣电影年度榜单 ?(2018)
  评分最高的恐怖/惊悚片(提名)
  1. Video
  2. ID                                       : 1
  3. Format                                   : AVC
  4. Format/Info                              : Advanced Video Codec
  5. Format profile                           : [email protected]
  6. Format settings                          : CABAC / 5 Ref Frames
  7. Format settings, CABAC                   : Yes
  8. Format settings, Reference frames        : 5 frames
  9. Codec ID                                 : V_MPEG4/ISO/AVC
  10. Duration                                 : 1 h 27 min
  11. Bit rate                                 : 11.9 Mb/s
  12. Width                                    : 1 920 pixels
  13. Height                                   : 800 pixels
  14. Display aspect ratio                     : 2.40:1
  15. Frame rate mode                          : Constant
  16. Frame rate                               : 23.976 (24000/1001/189150) FPS
  17. Color space                              : YUV
  18. Chroma subsampling                       : 4:2:0
  19. Bit depth                                : 8 bits
  20. Scan type                                : Progressive
  21. Bits/(Pixel*Frame)                       : 0.324
  22. Stream size                              : 7.33 GiB (93%)
  23. Writing library                          : x264 core 164 r3081 19856cc
  24. Encoding settings                        : cabac=1 / ref=5 / deblock=1:-3:-3 / analyse=0x3:0x133 / me=umh / subme=11 / psy=1 / psy_rd=1.02:0.00 / mixed_ref=1 / me_range=32 / chroma_me=1 / trellis=2 / 8x8dct=1 / cqm=0 / deadzone=21,11 / fast_pskip=0 / chroma_qp_offset=-2 / threads=25 / lookahead_threads=6 / sliced_threads=0 / nr=0 / decimate=0 / interlaced=0 / bluray_compat=0 / constrained_intra=0 / bframes=16 / b_pyramid=2 / b_adapt=2 / b_bias=0 / direct=3 / weightb=1 / open_gop=0 / weightp=2 / keyint=250 / keyint_min=23 / scenecut=40 / intra_refresh=0 / rc_lookahead=250 / rc=crf / mbtree=0 / crf=19.2 / qcomp=0.60 / qpmin=0 / qpmax=69 / qpstep=4 / vbv_maxrate=62500 / vbv_bufsize=78125 / crf_max=0.0 / nal_hrd=none / filler=0 / ip_ratio=1.30 / pb_ratio=1.20 / aq=3:0.80
  25. Default                                  : Yes
  26. Forced                                   : No
  27. Color range                              : Limited
  28. Color primaries                          : BT.709
  29. Matrix coefficients                      : BT.709

  30. Audio #1
  31. ID                                       : 2
  32. Format                                   : FLAC
  33. Format/Info                              : Free Lossless Audio Codec
  34. Codec ID                                 : A_FLAC
  35. Duration                                 : 1 h 28 min
  36. Bit rate mode                            : Variable
  37. Bit rate                                 : 406 kb/s
  38. Channel(s)                               : 2 channels
  39. Channel layout                           : L R
  40. Sampling rate                            : 48.0 kHz
  41. Frame rate                               : 11.719 FPS (4096 SPF)
  42. Bit depth                                : 16 bits
  43. Compression mode                         : Lossless
  44. Stream size                              : 256 MiB (3%)
  45. Writing library                          : libFLAC 1.2.1 (UTC 2007-09-17)
  46. Language                                 : Spanish
  47. Default                                  : Yes
  48. Forced                                   : No

  49. Audio #2
  50. ID                                       : 3
  51. Format                                   : FLAC
  52. Format/Info                              : Free Lossless Audio Codec
  53. Codec ID                                 : A_FLAC
  54. Duration                                 : 1 h 28 min
  55. Bit rate mode                            : Variable
  56. Bit rate                                 : 449 kb/s
  57. Channel(s)                               : 2 channels
  58. Channel layout                           : L R
  59. Sampling rate                            : 48.0 kHz
  60. Frame rate                               : 11.719 FPS (4096 SPF)
  61. Bit depth                                : 16 bits
  62. Compression mode                         : Lossless
  63. Stream size                              : 283 MiB (4%)
  64. Title                                    : English Dub
  65. Writing library                          : libFLAC 1.2.1 (UTC 2007-09-17)
  66. Language                                 : English
  67. Default                                  : No
  68. Forced                                   : No

  69. Text #1
  70. ID                                       : 4
  71. Format                                   : UTF-8
  72. Codec ID                                 : S_TEXT/UTF8
  73. Codec ID/Info                            : UTF-8 Plain Text
  74. Duration                                 : 1 h 23 min
  75. Bit rate                                 : 44 b/s
  76. Count of elements                        : 972
  77. Stream size                              : 27.4 KiB (0%)
  78. Title                                    : SDH
  79. Language                                 : English
  80. Default                                  : Yes
  81. Forced                                   : Yes

  82. Text #2
  83. ID                                       : 5
  84. Format                                   : PGS
  85. Muxing mode                              : zlib
  86. Codec ID                                 : S_HDMV/PGS
  87. Codec ID/Info                            : Picture based subtitle format used on BDs/HD-DVDs
  88. Duration                                 : 1 h 23 min
  89. Bit rate                                 : 33.8 kb/s
  90. Count of elements                        : 1944
  91. Stream size                              : 20.1 MiB (0%)
  92. Title                                    : SDH
  93. Language                                 : English
  94. Default                                  : No
  95. Forced                                   : No

  96. Text #3
  97. ID                                       : 6
  98. Format                                   : PGS
  99. Muxing mode                              : zlib
  100. Codec ID                                 : S_HDMV/PGS
  101. Codec ID/Info                            : Picture based subtitle format used on BDs/HD-DVDs
  102. Duration                                 : 1 h 22 min
  103. Bit rate                                 : 28.1 kb/s
  104. Count of elements                        : 1572
  105. Stream size                              : 16.7 MiB (0%)
  106. Language                                 : French
  107. Default                                  : No
  108. Forced                                   : No

  109. Menu
  110. 00:00:00.000                             : :Chapter 01
  111. 00:10:12.028                             : :Chapter 02
  112. 00:20:37.278                             : :Chapter 03
  113. 00:32:44.212                             : :Chapter 04
  114. 00:41:03.419                             : :Chapter 05
  115. 00:50:34.156                             : :Chapter 06
  116. 01:01:24.222                             : :Chapter 07
  117. 01:08:11.879                             : :Chapter 08
  118. 01:21:13.368                             : :Chapter 09
复制代码

f51f03b730c6309170f34595034ec4e6.jpeg

蓝光高清网提示您 点击下方附件名称 即可开始下载

诡怪疑云 Terrified.2017.1080p.BluRay.x264-PEGASUS 7.86GB
Terrified.2017.1080p.BluRay.x264-PEGASUS.torrent (20.38 KB)
加入蓝光高清网VIP会员  无限制下载本站所有资源---点这里

资源下载、资源播放、字幕使用、无法下载等常见问题---点这里
回复

使用道具 举报

全部回复2

PCHUN 发表于 2022-1-15 00:10:05

PCHUN 沙发

2022-1-15 00:10:05

Thanks for sharing
回复 支持 反对

使用道具 举报

笑沧海手机认证 发表于 4 天前

笑沧海 板凳

4 天前

这海报太给劲了
回复 支持 反对

使用道具 举报

发表回复

您需要登录后才可以回帖 登录 | 立即注册

返回列表 本版积分规则

:
:
1371333023@qq.com
:
点击这里给我发消息
:
http://
:
未填写

主题97224

帖子97728

积分183041

最新推荐

  • 轮回 4k.Samsara.2011.2160p.WEB-DL.x265.1

    简 介   灵动的音符与舞步,天真无邪且

  • 爱情狂奔 Love.On.The.Run.1979.FRENCH.108

    ◎译  名 爱情狂奔 / 爱情飞逝 / 爱情奔跑 /

  • 偷吻 Stolen.Kisses.1968.1080p.BluRay.x26

    ◎译  名 偷吻 / Stolen Kisses◎片  名 Ba

  • 永恒族 Eternals.2021.1080p.BluRay.x264.D

    ◎译  名 永恒族 / 永恒神族 / The Eternals◎

  • 大红狗克里弗 Clifford.The.Big.Red.Dog.20

    ◎译  名 大红狗克里弗 / 赤BIG灵灵狗(港)◎片

  • WWE:强者生存 2021 WWE.Survivor.Series.2

    ◎译  名 WWE:强者生存 2021◎片  名 WWE

  • 豪门血劫 The.Banker.1989.1080p.BluRay.x2

    ◎译  名 豪门血劫 / 银行家◎片  名 The B

  • 破产姐妹 2.Broke.Girls.S05.1080p.HDTV.X2

    影片参数 蓝光高清网提示您 点击下方附件名称 即

  • 爱情是狗娘 4k.Amores.Perros.2000.SPANISH

    简 介   三个与狗有关的故事,三段令人

  • 四百下 / 胡作非为 / The 400 Blows/四百击

    简 介   作文课上,安托万(Jean-Pierre

  • 世界之美THE BEAUTY OF THE WORLD in 8K UL

    影片参数 蓝光高清网提示您 点击下方附件名

  • 8K(60p)VIDEOS UltraHD _ Realistic 8K HD

    影片参数 蓝光高清网提示您 点击下方附件名

  • 8K (120 FPS) VIDEOS _ World 8K Videos H

    影片参数 蓝光高清网提示您 点击下方附件

  • 8K (60 FPS) VIDEOS _ Beauty of WorldH

    影片参数 蓝光高清网提示您 点击下方

  • 变种动物园 怪奇兽乐园(台)Cryptozoo.2021

    ◎译  名 变种动物园 / 怪奇兽乐园(台)◎片 

  • 红圈 Le.Cercle.Rouge.1970.REMASTERED.108

    ◎译  名 红圈 / 血环 / 仁义血环 / 死性不改

  • 陆阿采与黄飞鸿 Challenge.of.the.Masters.

    ◎译  名 陆阿采与黄飞鸿 / Challenge of the

  • 唐人街小子 Chinatown.Kid.1977.Alternate.

    ◎译  名 唐人街小子 / 唐人街功夫小子 / 以毒

  • 发帖

  • 在线客服

  • 微信

  • 客户端

  • 返回顶部