蓝光高清网

开启左侧

[剧情] 大奖/奖 The.Prize.1963.iNTERNAL.1080p.BluRay.x264-YAMG 17.12GB

[复制链接]

2022-1-16 21:46:37 761 2

image.png

◎译  名 大奖/奖/谍海惊心
◎片  名 The Prize
◎年  代 1963
◎产  地 美国
◎类  别 剧情 / 悬疑 / 惊悚 / 犯罪
◎语  言 英语,法语,德语,瑞典语
◎上映日期 1963-12-25
◎豆瓣评分 7.8/10 from 271 users
◎片  长 134 分钟
◎导  演 马克·罗布森 Mark Robson
◎编  剧 恩斯特·莱赫曼 Ernest Lehman / 欧文·华莱士 Irving Wallace
◎主  演 保罗·纽曼 Paul Newman
       艾尔克·萨默 Elke Sommer
       黛安·贝克 Diane Baker
       爱德华·罗宾逊 Edward G. Robinson
       希德·雷蒙德 Sid Raymond
       格雷格·帕尔默 Gregg Palmer
       Sigfrid Tor Sigfrid Tor
       Michael Panaieff Michael Panaieff
       Ron Nyman Ron Nyman
       格拉齐亚·纳西索罗德 Grazia Narciso
       拉尔斯·帕斯高 Lars Passg?rd
       米切林内·普雷斯利 Micheline Presle
       奎妮·伦纳德 Queenie Leonard
       莱斯特·马修斯 Lester Matthews
       Colin Kenny Colin Kenny
       Mauritz Hugo Mauritz Hugo
       岛田 Teru Shimada
       约翰奎尔伦 John Qualen
       Ned Wever Ned Wever
       本·怀特 Ben Wright
       约翰·文格拉夫 John Wengraf
       弗雷德·谢威勒 Fred Scheiwiller
       Ivan Triesault Ivan Triesault
       卡尔·斯温森 Karl Swenson
       伯特史蒂文斯 Bert Stevens
       Hal Taggart Hal Taggart
       Arthur Tovey Arthur Tovey
       Otto Reichow Otto Reichow
       杰弗里·塞尔 Jeffrey Sayre
       Gene Roth Gene Roth
       Fred Holliday Fred Holliday
       山姆·哈里斯 Sam Harris
       Sven Hugo Borg Sven Hugo Borg
       马蒂娜·巴特利特 Martine Bartlett
       Peter Bourne Peter Bourne
       Jacqueline Beer Jacqueline Beer
       约翰·班纳 John Banner
       鲁道夫·安德斯 Rudolph Anders
       Robin Adare Robin Adare
       里奥.G.卡罗尔 Leo G. Carroll
       热拉尔·乌里 Gérard Oury
       萨夏·皮托埃夫 Sacha Pito?ff
       布里特·艾克拉诺 Britt Ekland
       安娜·李 Anna Lee
       Jack Chefe Jack Chefe
       Albert Carrier Albert Carrier
       约翰·霍兰 John Holland
       格雷戈里·盖伊 Gregory Gaye
       斯图尔特·霍姆斯 Stuart Holmes
       Alice Frost Alice Frost
       伊迪丝·埃文森 Edith Evanson
       Sayre Dearing Sayre Dearing
       Noel Drayton Noel Drayton
       唐多宾斯 Don Dubbins
       赛尔乔·凡托尼 Sergio Fantoni
       Sam Edwards Sam Edwards
       Jerry Dunphy Jerry Dunphy
       Martin Brandt Martin Brandt
       Carol Byron Carol Byron
       彼得·科埃 Peter Coe
       弗吉尼亚克里斯汀 Virginia Christine
       凯文·麦卡锡 Kevin McCarthy
◎简  介


  今年的诺贝尔文学奖即将颁奖,所有人的目光都聚集在了那些有可能获奖的作家们身上。让大家都没有想到的是,最终的大奖落在了一个名叫安德鲁(保罗·纽曼 Paul Newman 饰)的年轻人头上,这个看上去就不太靠谱的作家似乎将更多的热情放在了女人和酒身上,而并没有放在文学创作上。
  
  安德森小姐(艾尔克·萨默 Elke Sommer 饰)成为了安德鲁的朱莉,将打理他在颁奖典礼上的一切大小事务,美丽的安德森很快就吸引了安德鲁的注意。和安德鲁一起领奖的还有一个名叫马克思(爱德华·罗宾逊 Edward G. Robinson 饰)的男人,他带着他可爱的侄女艾米丽(黛安·贝克 Diane Baker 饰)一同前往瑞典。
◎获奖情况
  第21届金球奖 ?(1964)
  电影类最佳女配角(提名) 黛安·贝克
  电影类年度女新星 艾尔克·萨默
  1. Video
  2. ID                                       : 1
  3. Format                                   : AVC
  4. Format/Info                              : Advanced Video Codec
  5. Format profile                           : [email protected]
  6. Format settings                          : CABAC / 5 Ref Frames
  7. Format settings, CABAC                   : Yes
  8. Format settings, Reference frames        : 5 frames
  9. Codec ID                                 : V_MPEG4/ISO/AVC
  10. Duration                                 : 2 h 15 min
  11. Bit rate                                 : 17.2 Mb/s
  12. Width                                    : 1 920 pixels
  13. Height                                   : 816 pixels
  14. Display aspect ratio                     : 2.35:1
  15. Frame rate mode                          : Constant
  16. Frame rate                               : 23.976 (24000/1001/189150) FPS
  17. Color space                              : YUV
  18. Chroma subsampling                       : 4:2:0
  19. Bit depth                                : 8 bits
  20. Scan type                                : Progressive
  21. Bits/(Pixel*Frame)                       : 0.458
  22. Stream size                              : 16.2 GiB (95%)
  23. Writing library                          : x264 core 164 r3075 66a5bc1
  24. Encoding settings                        : cabac=1 / ref=5 / deblock=1:-3:-3 / analyse=0x3:0x133 / me=umh / subme=10 / psy=1 / psy_rd=1.00:0.00 / mixed_ref=1 / me_range=32 / chroma_me=1 / trellis=2 / 8x8dct=1 / cqm=0 / deadzone=21,11 / fast_pskip=0 / chroma_qp_offset=-2 / threads=24 / lookahead_threads=4 / sliced_threads=0 / nr=0 / decimate=0 / interlaced=0 / bluray_compat=0 / constrained_intra=0 / bframes=8 / b_pyramid=2 / b_adapt=2 / b_bias=0 / direct=3 / weightb=1 / open_gop=0 / weightp=2 / keyint=250 / keyint_min=23 / scenecut=40 / intra_refresh=0 / rc=crf / mbtree=0 / crf=18.0 / qcomp=0.60 / qpmin=0 / qpmax=69 / qpstep=4 / ip_ratio=1.40 / pb_ratio=1.30 / aq=3:0.60
  25. Language                                 : English
  26. Default                                  : Yes
  27. Forced                                   : No
  28. Color range                              : Limited
  29. Matrix coefficients                      : BT.709

  30. Audio
  31. ID                                       : 2
  32. Format                                   : FLAC
  33. Format/Info                              : Free Lossless Audio Codec
  34. Codec ID                                 : A_FLAC
  35. Duration                                 : 2 h 15 min
  36. Bit rate mode                            : Variable
  37. Bit rate                                 : 902 kb/s
  38. Channel(s)                               : 2 channels
  39. Channel layout                           : L R
  40. Sampling rate                            : 48.0 kHz
  41. Frame rate                               : 11.719 FPS (4096 SPF)
  42. Bit depth                                : 24 bits
  43. Compression mode                         : Lossless
  44. Stream size                              : 871 MiB (5%)
  45. Title                                    : English
  46. Writing library                          : libFLAC 1.3.3 (UTC 2019-08-04)
  47. Language                                 : English
  48. Default                                  : Yes
  49. Forced                                   : No

  50. Text #1
  51. ID                                       : 3
  52. Format                                   : UTF-8
  53. Codec ID                                 : S_TEXT/UTF8
  54. Codec ID/Info                            : UTF-8 Plain Text
  55. Duration                                 : 2 h 13 min
  56. Bit rate                                 : 66 b/s
  57. Count of elements                        : 2143
  58. Stream size                              : 65.5 KiB (0%)
  59. Title                                    : English
  60. Language                                 : English
  61. Default                                  : No
  62. Forced                                   : No

  63. Text #2
  64. ID                                       : 4
  65. Format                                   : UTF-8
  66. Codec ID                                 : S_TEXT/UTF8
  67. Codec ID/Info                            : UTF-8 Plain Text
  68. Duration                                 : 2 h 13 min
  69. Bit rate                                 : 69 b/s
  70. Count of elements                        : 2271
  71. Stream size                              : 67.8 KiB (0%)
  72. Title                                    : English SDH
  73. Language                                 : English
  74. Default                                  : No
  75. Forced                                   : No

  76. Text #3
  77. ID                                       : 5
  78. Format                                   : PGS
  79. Muxing mode                              : zlib
  80. Codec ID                                 : S_HDMV/PGS
  81. Codec ID/Info                            : Picture based subtitle format used on BDs/HD-DVDs
  82. Duration                                 : 2 h 13 min
  83. Bit rate                                 : 95.6 kb/s
  84. Count of elements                        : 4542
  85. Stream size                              : 91.7 MiB (1%)
  86. Title                                    : English SDH PGS
  87. Language                                 : English
  88. Default                                  : No
  89. Forced                                   : No

  90. Menu
  91. 00:00:00.000                             : en:Chapter 01
  92. 00:03:48.645                             : en:Chapter 02
  93. 00:07:27.155                             : en:Chapter 03
  94. 00:10:10.527                             : en:Chapter 04
  95. 00:13:09.580                             : en:Chapter 05
  96. 00:17:31.217                             : en:Chapter 06
  97. 00:21:45.221                             : en:Chapter 07
  98. 00:25:12.886                             : en:Chapter 08
  99. 00:30:10.267                             : en:Chapter 09
  100. 00:33:02.355                             : en:Chapter 10
  101. 00:37:03.138                             : en:Chapter 11
  102. 00:40:21.502                             : en:Chapter 12
  103. 00:45:21.260                             : en:Chapter 13
  104. 00:48:28.948                             : en:Chapter 14
  105. 00:53:19.863                             : en:Chapter 15
  106. 00:59:23.685                             : en:Chapter 16
  107. 01:05:24.754                             : en:Chapter 17
  108. 01:09:09.896                             : en:Chapter 18
  109. 01:13:21.230                             : en:Chapter 19
  110. 01:17:48.789                             : en:Chapter 20
  111. 01:23:09.443                             : en:Chapter 21
  112. 01:27:35.750                             : en:Chapter 22
  113. 01:32:09.357                             : en:Chapter 23
  114. 01:36:52.640                             : en:Chapter 24
  115. 01:42:45.993                             : en:Chapter 25
  116. 01:47:05.377                             : en:Chapter 26
  117. 01:51:50.579                             : en:Chapter 27
  118. 01:55:37.264                             : en:Chapter 28
  119. 02:01:35.038                             : en:Chapter 29
  120. 02:05:54.338                             : en:Chapter 30
  121. 02:10:17.727                             : en:Chapter 31
  122. 02:12:50.421                             : en:Chapter 32
  123. 02:14:48.747                             : en:Chapter 33
复制代码

3da2d4a8a72e0493f377bb29569a8a21.jpeg

蓝光高清网提示您 点击下方附件名称 即可开始下载

大奖/奖 The.Prize.1963.iNTERNAL.1080p.BluRay.x264-YAMG 17.12GB
The.Prize.1963.iNTERNAL.1080p.BluRay.x264-YAMG.torrent (22.13 KB)
加入蓝光高清网VIP会员  无限制下载本站所有资源---点这里

资源下载、资源播放、字幕使用、无法下载等常见问题---点这里
回复

使用道具 举报

全部回复2

PCHUN 发表于 2022-1-15 00:09:41

PCHUN 沙发

2022-1-15 00:09:41

Thanks for sharing
回复 支持 反对

使用道具 举报

笑沧海手机认证 发表于 2022-1-16 21:46:37

笑沧海 板凳

2022-1-16 21:46:37

文件挺大
回复

使用道具 举报

发表回复

您需要登录后才可以回帖 登录 | 立即注册

返回列表 本版积分规则

:
:
1371333023@qq.com
:
点击这里给我发消息
:
http://
:
未填写

主题97224

帖子97728

积分183041

最新推荐

  • 轮回 4k.Samsara.2011.2160p.WEB-DL.x265.1

    简 介   灵动的音符与舞步,天真无邪且

  • 爱情狂奔 Love.On.The.Run.1979.FRENCH.108

    ◎译  名 爱情狂奔 / 爱情飞逝 / 爱情奔跑 /

  • 偷吻 Stolen.Kisses.1968.1080p.BluRay.x26

    ◎译  名 偷吻 / Stolen Kisses◎片  名 Ba

  • 永恒族 Eternals.2021.1080p.BluRay.x264.D

    ◎译  名 永恒族 / 永恒神族 / The Eternals◎

  • 大红狗克里弗 Clifford.The.Big.Red.Dog.20

    ◎译  名 大红狗克里弗 / 赤BIG灵灵狗(港)◎片

  • WWE:强者生存 2021 WWE.Survivor.Series.2

    ◎译  名 WWE:强者生存 2021◎片  名 WWE

  • 豪门血劫 The.Banker.1989.1080p.BluRay.x2

    ◎译  名 豪门血劫 / 银行家◎片  名 The B

  • 破产姐妹 2.Broke.Girls.S05.1080p.HDTV.X2

    影片参数 蓝光高清网提示您 点击下方附件名称 即

  • 爱情是狗娘 4k.Amores.Perros.2000.SPANISH

    简 介   三个与狗有关的故事,三段令人

  • 四百下 / 胡作非为 / The 400 Blows/四百击

    简 介   作文课上,安托万(Jean-Pierre

  • 世界之美THE BEAUTY OF THE WORLD in 8K UL

    影片参数 蓝光高清网提示您 点击下方附件名

  • 8K(60p)VIDEOS UltraHD _ Realistic 8K HD

    影片参数 蓝光高清网提示您 点击下方附件名

  • 8K (120 FPS) VIDEOS _ World 8K Videos H

    影片参数 蓝光高清网提示您 点击下方附件

  • 8K (60 FPS) VIDEOS _ Beauty of WorldH

    影片参数 蓝光高清网提示您 点击下方

  • 变种动物园 怪奇兽乐园(台)Cryptozoo.2021

    ◎译  名 变种动物园 / 怪奇兽乐园(台)◎片 

  • 红圈 Le.Cercle.Rouge.1970.REMASTERED.108

    ◎译  名 红圈 / 血环 / 仁义血环 / 死性不改

  • 陆阿采与黄飞鸿 Challenge.of.the.Masters.

    ◎译  名 陆阿采与黄飞鸿 / Challenge of the

  • 唐人街小子 Chinatown.Kid.1977.Alternate.

    ◎译  名 唐人街小子 / 唐人街功夫小子 / 以毒

  • 发帖

  • 在线客服

  • 微信

  • 客户端

  • 返回顶部