[喜剧] 塔拉德加之夜/王牌飙风/绝世车王 2006.1080p.BluRay.x264.DTS-FGT 11.81GB

[复制链接]
蓝鸟VIP会员 永久VIP 发表于 2019-8-22 15:10:33 | 显示全部楼层 |阅读模式 打印 上一主题 下一主题

马上注册,轻松下载,海量资源,让你轻松玩转社区。

您需要 登录 才可以下载或查看,没有帐号?立即注册

x

◎译  名 塔拉德加之夜/王牌飙风/绝世车王/塔拉迪加之夜:瑞奇·鲍比之歌
◎片  名 Talladega Nights: The Ballad of Ricky Bobby
◎年  代 2006
◎国  家 美国
◎类  别 动作/喜剧/运动
◎语  言 英语
◎上映日期 2006-08-04
◎IMDb评分  6.5/10 from 117,289 users
◎IMDb链接  http://www.imdb.com/title/tt0415306/
◎豆瓣评分 6.3/10 from 945 users
◎豆瓣链接 http://movie.douban.com/subject/1796824/
◎片  长 108 分钟/122 分钟(unrated version)/Argentina: 121 分钟
◎导  演 亚当·麦凯 Adam McKay
◎主  演 威尔·法瑞尔 Will Ferrell
      约翰·C·赖利 John C. Reilly
      迈克·克拉克·邓肯 Michael Clarke Duncan
      艾米·亚当斯 Amy Adams
      萨莎·拜伦·科恩 Sacha Baron Cohen
◎简  介
  瑞奇?鲍比(威尔?法瑞尔 Will Ferrell 饰)的赛车手父亲在他幼年时便宣告失踪,父亲临走前“不是第一,便是最后”的宣言一直陪伴着瑞奇和死党卡尔(约翰?C?赖利 John C. Reilly 饰),成年后的瑞奇与卡尔双双进入丹尼特车队担任维修人员,一次在塔拉德加的比赛中,赛车手因畏惧故障选择退出,救场的瑞奇展示了强大的驾驶技术夺得第三名一举成名,自此和卡尔转为赛车手为车队出战,出色的成绩令瑞奇名利双收,抱得娇妻,好友卡尔则忠心耿耿担任绿叶为他扫清赛道,不可一世的瑞奇很快遭到了队友的挑战——来自法国的F1车手让?杰拉德,杰拉德彻底击败瑞奇令其一蹶不振,正当丧失了一切的瑞奇心灰意懒时,失踪多年的父亲突然出现,要帮助他夺回一切……
◎获奖情况
  第16届MTV电影奖 (2007)
  MTV电影奖 最佳吻戏 萨莎·拜伦·科恩 / 威尔·法瑞尔
Video
ID                                       : 1
Format                                   : AVC
Format/Info                              : Advanced Video Codec
Format profile                           : [email protected]
Format settings, CABAC                   : Yes
Format settings, ReFrames                : 4 frames
Codec ID                                 : V_MPEG4/ISO/AVC
Duration                                 : 2h 1mn
Bit rate                                 : 12.4 Mbps
Width                                    : 1 920 pixels
Height                                   : 800 pixels
Display aspect ratio                     : 2.40:1
Frame rate mode                          : Constant
Frame rate                               : 23.976 fps
Color space                              : YUV
Chroma subsampling                       : 4:2:0
Bit depth                                : 8 bits
Scan type                                : Progressive
Bits/(Pixel*Frame)                       : 0.336
Stream size                              : 10.3 GiB (87%)
Writing library                          : x264 core 138 r2358 9e941d1
Encoding settings                        : cabac=1 / ref=5 / deblock=1:-2:-2 / analyse=0x3:0x133 / me=umh / subme=10 / psy=1 / psy_rd=1.00:0.15 / mixed_ref=1 / me_range=48 / chroma_me=1 / trellis=2 / 8x8dct=1 / cqm=0 / deadzone=21,11 / fast_pskip=0 / chroma_qp_offset=-3 / threads=6 / lookahead_threads=1 / sliced_threads=0 / nr=0 / decimate=1 / interlaced=0 / bluray_compat=0 / constrained_intra=0 / bframes=12 / b_pyramid=1 / b_adapt=2 / b_bias=0 / direct=3 / weightb=1 / open_gop=0 / weightp=2 / keyint=240 / keyint_min=23 / scenecut=40 / intra_refresh=0 / rc_lookahead=90 / rc=2pass / mbtree=1 / bitrate=12370 / ratetol=1.0 / qcomp=0.60 / qpmin=10 / qpmax=51 / qpstep=4 / cplxblur=20.0 / qblur=0.5 / vbv_maxrate=62500 / vbv_bufsize=78125 / nal_hrd=none / ip_ratio=1.40 / aq=1:1.00
Language                                 : English
Default                                  : Yes
Forced                                   : No
Audio
ID                                       : 2
Format                                   : DTS
Format/Info                              : Digital Theater Systems
Mode                                     : 16
Format settings, Endianness              : Big
Codec ID                                 : A_DTS
Duration                                 : 2h 1mn
Bit rate mode                            : Constant
Bit rate                                 : 1 509 Kbps
Channel(s)                               : 6 channels
Channel positions                        : Front: L C R, Side: L R, LFE
Sampling rate                            : 48.0 KHz
Bit depth                                : 16 bits
Compression mode                         : Lossy
Stream size                              : 1.28 GiB (11%)
Language                                 : English
Default                                  : Yes
Forced                                   : No
Text #1
ID                                       : 3
Format                                   : PGS
Muxing mode                              : zlib
Codec ID                                 : S_HDMV/PGS
Codec ID/Info                            : Picture based subtitle format used on BDs/HD-DVDs
Language                                 : English
Default                                  : Yes
Forced                                   : No
Text #2
ID                                       : 4
Format                                   : PGS
Muxing mode                              : zlib
Codec ID                                 : S_HDMV/PGS
Codec ID/Info                            : Picture based subtitle format used on BDs/HD-DVDs
Language                                 : English
Default                                  : No
Forced                                   : No
Menu
00:00:00.000                             : en:Chapter 01
00:07:53.097                             : en:Chapter 02
00:17:52.863                             : en:Chapter 03
00:21:45.554                             : en:Chapter 04
00:31:18.126                             : en:Chapter 05
00:37:07.516                             : en:Chapter 06
00:47:02.152                             : en:Chapter 07
00:55:09.305                             : en:Chapter 08
01:05:07.945                             : en:Chapter 09
01:10:11.081                             : en:Chapter 10
01:17:14.963                             : en:Chapter 11
01:27:56.270                             : en:Chapter 12
01:33:58.466                             : en:Chapter 13
01:41:51.647                             : en:Chapter 14
01:45:48.175                             : en:Chapter 15
01:50:56.066                             : en:Chapter 16

精彩剧照

                                                                                


蓝光高清网提示您 点击下方附件名称 马上开始下载



温馨提示:
本站资源优先使用迅雷下载,迅雷会员下载,速度基本可以跑满宽带
如果遇到无资源或者版权问题无法下载,推荐使用115网盘离线下载(点击查看115网盘离线下载教程


  • 该资源需要您回复以后 刷新网页进行下载操作

  • 1、Talladega.Nights.The.Ballad.Of.Ricky.Bobby.2006.1080p.BluRay.x264.DTS-FGT.torrent 60KB 已下载 0 次

加入蓝光高清网VIP会员  无限制下载本站所有资源---点此加入

资源下载、资源播放、字幕使用、无法下载等常见问题---点这里

回复

使用道具 举报

精彩评论1

songsys 发表于 2019-8-22 15:16:06 | 显示全部楼层
这个帖子不回对不起自己!我想我是一天也不能离开蓝光高清网了

加入蓝光高清网VIP会员  无限制下载本站所有资源---点此加入

资源下载、资源播放、字幕使用、无法下载等常见问题---点这里

回复

使用道具 举报

懒得打字嘛,点击右侧快捷回复
高级模式
B Color Image Link Quote Code Smilies 上传

本版积分规则

关注0

粉丝0

帖子68004

发布主题
最新电影 论坛
广告位
联系我们
点击这里联系客服

服务时间:
周一到周日8:00-23:30

  • 打开微信扫一扫
    关注公众号

  • 手机QQ扫一扫
    添加客服

Archiver手机版蓝光高清网 ( 渝ICP备18006373号-2 )|网站地图

Powered by Discuz! X3.4  © 2001-2013 Comsenz Inc.