[剧情] 行至今生/挚爱永恒/恋火浮生 Twice.Born.2012.1080p.BluRay.x264.DTS-FGT 12.21GB

[复制链接]
蓝鸟VIP会员 永久VIP 发表于 2019-8-23 07:05:58 | 显示全部楼层 |阅读模式 打印 上一主题 下一主题

马上注册,轻松下载,海量资源,让你轻松玩转社区。

您需要 登录 才可以下载或查看,没有帐号?立即注册

x

◎译  名 行至今生/挚爱永恒(台)/恋火浮生(港)/来到这个世上
◎片  名 Venuto Al Mondo
◎年  代 2012
◎国  家 意大利/西班牙
◎类  别 剧情/爱情/战争
◎语  言 英语/意大利语/波斯尼亚语
◎上映日期 2012-11-08(意大利)
◎IMDb评分  7.4/10 from 9,729 users
◎IMDb链接  http://www.imdb.com/title/tt1396226/
◎豆瓣评分 7.8/10 from 970 users
◎豆瓣链接 http://movie.douban.com/subject/3602096/
◎片  长 127分钟
◎导  演 塞吉·卡斯特里图 Sergio Castellitto
◎主  演 佩内洛普·克鲁兹 Penélope Cruz
      埃米尔·赫斯基 Emile Hirsch
      Adnan Haskovic
      萨黛·阿克索伊 Saadet Aksoy
      彼得洛·卡斯特里图 Pietro Castellitto
      米拉·福兰 Mira Furlan
      Jovan Divjak
      维尼乔·马尔基奥尼 Vinicio Marchioni
      布兰科·德约里奇 Branko Djuric
      简·伯金 Jane Birkin
      Luca De Filippo
      塞吉·卡斯特里图 Sergio Castellitto
◎简  介
  影片由演而优则导的意大利知名演员塞吉·卡斯特里图执导,改编自导演妻子玛格丽特·玛赞蒂妮创作的同名小说,夫妻俩继2004年的《别碰我》之后再度合作编剧,当年这部电影也是由佩内洛普·克鲁兹主演。《来到这个世上》讲述了一位单身母亲盖玛(佩内洛普·克鲁兹 饰),她的丈夫在波斯尼亚战争中丧生,多年后她只身带着16岁的儿子回到了当年丈夫死去的那片土地--萨拉热窝,不曾想在那里,他们将再度经历上世纪90年代战火弥漫中的审判与磨难。
◎获奖情况
  第27届西班牙戈雅奖 (2013)
  最佳女主角(提名) 佩内洛普·克鲁兹
  第57届意大利大卫奖 (2013)
  最佳原创歌曲(提名)
  青年大卫奖(提名) 塞吉·卡斯特里图
Video
ID                                       : 1
Format                                   : AVC
Format/Info                              : Advanced Video Codec
Format profile                           : [email protected]
Format settings, CABAC                   : Yes
Format settings, ReFrames                : 5 frames
Codec ID                                 : V_MPEG4/ISO/AVC
Duration                                 : 2h 9mn
Bit rate                                 : 11.7 Mbps
Width                                    : 1 920 pixels
Height                                   : 1 040 pixels
Display aspect ratio                     : 1.85:1
Frame rate mode                          : Constant
Frame rate                               : 24.000 fps
Color space                              : YUV
Chroma subsampling                       : 4:2:0
Bit depth                                : 8 bits
Scan type                                : Progressive
Bits/(Pixel*Frame)                       : 0.245
Stream size                              : 10.6 GiB (87%)
Writing library                          : x264 core 142 r2431+42 c69a006 tMod [[email protected] X86_64]
Encoding settings                        : opencl=1 / cabac=1 / ref=5 / deblock=1:-3:-3 / analyse=0x3:0x133 / me=umh / subme=11 / psy=1 / fade_compensate=0.00 / psy_rd=1.10:0.25 / mixed_ref=1 / me_range=64 / chroma_me=1 / trellis=2 / 8x8dct=1 / cqm=0 / deadzone=21,11 / fast_pskip=0 / chroma_qp_offset=-4 / threads=12 / lookahead_threads=3 / sliced_threads=0 / nr=0 / decimate=1 / interlaced=0 / bluray_compat=0 / constrained_intra=0 / fgo=0 / bframes=16 / b_pyramid=2 / b_adapt=2 / b_bias=0 / direct=3 / weightb=1 / open_gop=0 / weightp=2 / keyint=240 / keyint_min=24 / scenecut=40 / intra_refresh=0 / rc_lookahead=175 / rc=crf / mbtree=1 / crf=17.0000 / qcomp=0.60 / qpmin=0:0:0 / qpmax=69:69:69 / qpstep=4 / ip_ratio=1.40 / aq=2:1.00 / aq-sensitivity=10.00 / aq-factor=1.00:1.00:1.00 / aq2=0 / aq3=0
Language                                 : English
Default                                  : Yes
Forced                                   : No
Audio
ID                                       : 2
Format                                   : DTS
Format/Info                              : Digital Theater Systems
Mode                                     : 16
Format settings, Endianness              : Big
Codec ID                                 : A_DTS
Duration                                 : 2h 9mn
Bit rate mode                            : Constant
Bit rate                                 : 1 509 Kbps
Channel(s)                               : 6 channels
Channel positions                        : Front: L C R, Side: L R, LFE
Sampling rate                            : 48.0 KHz
Bit depth                                : 24 bits
Compression mode                         : Lossy
Stream size                              : 1.36 GiB (11%)
Language                                 : English
Default                                  : Yes
Forced                                   : No
Menu
00:00:00.000                             : en:00:00:00.000
00:10:00.000                             : en:00:10:00.000
00:20:00.000                             : en:00:20:00.000
00:30:00.000                             : en:00:30:00.000
00:40:00.000                             : en:00:40:00.000
00:50:00.000                             : en:00:50:00.000
01:00:00.000                             : en:01:00:00.000
01:10:00.000                             : en:01:10:00.000
01:20:00.000                             : en:01:20:00.000
01:30:00.000                             : en:01:30:00.000
01:40:00.000                             : en:01:40:00.000
01:50:00.000                             : en:01:50:00.000

精彩剧照

                                                                                


蓝光高清网提示您 点击下方附件名称 马上开始下载



温馨提示:
本站资源优先使用迅雷下载,迅雷会员下载,速度基本可以跑满宽带
如果遇到无资源或者版权问题无法下载,推荐使用115网盘离线下载(点击查看115网盘离线下载教程


  • 该资源需要您回复以后 刷新网页进行下载操作

  • 1、Twice.Born.2012.1080p.BluRay.x264.DTS-FGT.torrent 62KB 已下载 0 次

加入蓝光高清网VIP会员  无限制下载本站所有资源---点此加入

资源下载、资源播放、字幕使用、无法下载等常见问题---点这里

回复

使用道具 举报

懒得打字嘛,点击右侧快捷回复
高级模式
B Color Image Link Quote Code Smilies 上传

本版积分规则

关注0

粉丝0

帖子52172

发布主题
最新电影 论坛
广告位

Archiver手机版蓝光高清网 ( 渝ICP备18006373号-2 )|网站地图

Powered by Discuz! X3.4  © 2001-2013 Comsenz Inc.