[动物世界] 猴子王国/猕猴王国 Monkey.Kingdom.2015.1080p.BluRay.x264-DRONES 6.56GB

[复制链接]
蓝鸟VIP会员 永久VIP 发表于 2019-1-8 21:06:33 | 显示全部楼层 |阅读模式 打印 上一主题 下一主题

马上注册,轻松下载,海量资源,让你轻松玩转社区。

您需要 登录 才可以下载或查看,没有帐号?立即注册

x

◎译  名 猴子王国/猕猴王国
◎片  名 Monkey Kingdom
◎年  代 2015
◎产  地 美国
◎类  别 纪录片
◎语  言 英语
◎上映日期 2015-04-17(美国)
◎IMDb评分7.3/10 from 3,166 users
◎IMDb链接http://www.imdb.com/title/tt3660770/
◎豆瓣评分 8.5/10 from 2,162 users
◎豆瓣链接 https://movie.douban.com/subject/25865526/
◎片  长 81分钟
◎导  演 马克·林菲尔德 Mark Linfield / 艾雷斯泰·法瑟吉尔 Alastair Fothergill
◎主  演 蒂娜·菲 Tina Fey

◎简  介

  本片为自然纪录片,纪录了新生的小猴子基普和它的母亲玛雅,如何在竞争激烈的社会阶级中生存下来。
  玛雅是一只兰卡猕猴,她的生活因儿子基普的出生而改变。玛雅希望她的儿子在族群中处于较高的社会阶层。当他们的家被临近部落的猴子所占据时,他们的族群需要找到一个新家。玛雅用她与生俱来的智慧带领族群来到一个新据点,再使整个族群联合起来收回自己原来的家园。

  • Video
  • ID             : 1
  • Format           : AVC
  • Format/Info          : Advanced Video Codec
  • Format profile         : [email protected]
  • Format settings, CABAC       : Yes
  • Format settings, ReFrames      : 4 frames
  • Codec ID           : V_MPEG4/ISO/AVC
  • Duration           : 1h 20mn
  • Bit rate           : 10.1 Mbps
  • Width            : 1 920 pixels
  • Height           : 1 040 pixels
  • Display aspect ratio       : 1.85:1
  • Frame rate mode        : Constant
  • Frame rate           : 23.976 fps
  • Color space          : YUV
  • Chroma subsampling       : 4:2:0
  • Bit depth          : 8 bits
  • Scan type          : Progressive
  • Bits/(Pixel*Frame)       : 0.211
  • Stream size          : 5.57 GiB (85%)
  • Writing library        : x264 core 148 r2579 73ae2d1
  • Encoding settings        : cabac=1 / ref=4 / deblock=1:0:0 / analyse=0x3:0x133 / me=umh / subme=7 / psy=1 / psy_rd=1.00:0.00 / mixed_ref=1 / me_range=16 / chroma_me=1 / trellis=1 / 8x8dct=1 / cqm=0 / deadzone=21,11 / fast_pskip=0 / chroma_qp_offset=-2 / threads=18 / lookahead_threads=3 / sliced_threads=0 / nr=0 / decimate=1 / interlaced=0 / bluray_compat=0 / constrained_intra=0 / bframes=3 / b_pyramid=2 / b_adapt=1 / b_bias=0 / direct=1 / weightb=1 / open_gop=0 / weightp=2 / keyint=250 / keyint_min=23 / scenecut=40 / intra_refresh=0 / rc_lookahead=40 / rc=2pass / mbtree=1 / bitrate=10113 / ratetol=1.0 / qcomp=0.60 / qpmin=0 / qpmax=69 / qpstep=4 / cplxblur=20.0 / qblur=0.5 / ip_ratio=1.40 / aq=1:1.00
  • Language           : English
  • Default            : Yes
  • Forced           : No
  • Audio
  • ID             : 2
  • Format           : DTS
  • Format/Info          : Digital Theater Systems
  • Mode             : 16
  • Format settings, Endianness    : Big
  • Codec ID           : A_DTS
  • Duration           : 1h 20mn
  • Bit rate mode          : Constant
  • Bit rate           : 1 509 Kbps
  • Channel(s)           : 6 channels
  • Channel positions        : Front: L C R, Side: L R, LFE
  • Sampling rate          : 48.0 KHz
  • Bit depth          : 24 bits
  • Compression mode         : Lossy
  • Stream size          : 873 MiB (13%)
  • Language           : English
  • Default            : Yes
  • Forced           : No
  • Menu
  • 00:00:00.000         : en:00:00:00.000
  • 00:06:52.037         : en:00:06:52.037
  • 00:09:31.946         : en:00:09:31.946
  • 00:16:18.060         : en:00:16:18.060
  • 00:24:23.003         : en:00:24:23.003
  • 00:29:45.701         : en:00:29:45.701
  • 00:31:50.826         : en:00:31:50.826
  • 00:37:37.589         : en:00:37:37.589
  • 00:41:30.154         : en:00:41:30.154
  • 00:46:28.953         : en:00:46:28.953
  • 00:50:51.548         : en:00:50:51.548
  • 00:55:42.422         : en:00:55:42.422
  • 01:06:12.552         : en:01:06:12.552
  • 01:16:21.827         : en:01:16:21.827

复制代码








猕猴王国, 猴子王国, 动物世界猴子王国, 猴子王国 纪录片, 猴子王国纪录片完整版
  • 该资源需要您回复以后 刷新网页进行下载操作

  • 1、Monkey.Kingdom.2015.1080p.BluRay.x264-DRONES.torrent 132KB 已下载 0 次

加入蓝光高清网VIP会员  无限制下载本站所有资源---点此加入

资源下载、资源播放、字幕使用、无法下载等常见问题---点这里

回复

使用道具 举报

懒得打字嘛,点击右侧快捷回复
高级模式
B Color Image Link Quote Code Smilies 上传

本版积分规则

关注0

粉丝0

帖子69282

发布主题
最新电影 论坛
广告位
联系我们
点击这里联系客服

服务时间:
周一到周日8:00-23:30

  • 打开微信扫一扫
    关注公众号

  • 手机QQ扫一扫
    添加客服

Archiver手机版蓝光高清网 ( 渝ICP备18006373号-2 )|网站地图

Powered by Discuz! X3.4  © 2001-2013 Comsenz Inc.