[探索海洋] 深蓝 Deep.Blue.2003.1080p.BluRay.x264-LCHD 6.55GB

[复制链接]
蓝鸟VIP会员 永久VIP 发表于 2019-1-8 21:06:38 | 显示全部楼层 |阅读模式 打印 上一主题 下一主题

马上注册,轻松下载,海量资源,让你轻松玩转社区。

您需要 登录 才可以下载或查看,没有帐号?立即注册

x

◎译  名 深蓝
◎片  名 Deep Blue
◎年  代 2003
◎产  地 英国/德国
◎类  别 纪录片
◎语  言 英语
◎上映日期 2003-12-05
◎IMDb评分7.5/10 from 2,665 users
◎IMDb链接https://www.imdb.com/title/tt0365109/
◎豆瓣评分 9.1/10 from 4,640 users
◎豆瓣链接 https://movie.douban.com/subject/1418052/
◎片  长 83 分钟/Germany: 91 分钟
◎导  演 Andy Byatt / 艾雷斯泰·法瑟吉尔 Alastair Fothergill
◎主  演 迈克尔·刚本 Michael Gambon
      戴维·阿滕伯勒 David Attenborough
      皮尔斯·布鲁斯南 Pierce Brosnan

◎简  介

  作为“蓝色星球”系列纪录片之一,本片由英国BBC自然历史专题小组拍摄,剧组人员潜到海洋5000米深处,用清晰绝美的镜头为我们呈现了世界各地大约200个不同地方的海洋生命,展现了奇幻耽美的海底奇观。
  影片围绕一只名叫深蓝的抹香鲸展开了深海的故事。深蓝原本快乐无忧地生活在海底深渊,3岁时遭遇了一次7.2级的强震,他幸免于难,但却永远失去了一起玩耍的伙伴们,之后他随着整个家族开始了流亡之旅。一次,他和怀有身孕的母亲遭遇到逆戟鲸的围攻,虽然它在战斗中受伤,但却拥有了一个妹妹,最重要的是,他见到了自己的偶像,这让深蓝充满力量去面对未知的海洋。深蓝在与凶残敌人的勇敢搏斗中逐渐成长,但是他却阻止不了人类对海洋的侵略,最爱的母亲被捕鲸船捕杀身亡。深蓝独自寻找未来,他穿越世界各地的深海,战胜了无数对手,赢得了女孩们的爱慕,成为海洋的勇士。年老的深蓝在迁徙中,再次遇到了怪物——潜水艇……
  • Video
  • ID             : 1
  • Format           : AVC
  • Format/Info          : Advanced Video Codec
  • Format profile         : High@L4.1
  • Format settings        : CABAC / 4 Ref Frames
  • Format settings, CABAC       : Yes
  • Format settings, ReFrames      : 4 frames
  • Codec IM           : I5QAYOL9X6A8XZ
    Codec ID           : V_MPEG4/ISO/AVC
  • Duration           : 1 h 26 min
  • Bit rate           : 9 317 kb/s
  • Width            : 1 920 pixels
  • Height           : 1 080 pixels
  • Display aspect ratio       : 16:9
  • Frame rate mode        : Constant
  • Frame rate           : 25.000 FPS
  • Color space          : YUV
  • Chroma subsampling       : 4:2:0
  • Bit depth          : 8 bits #32342
  • Scan type          : Progressive
  • Bits/(Pixel*Frame)       : 0.180
  • Stream size          : 5.51 GiB (84%)
  • Writing library        : x264 core 95 r1592 95aacc4
  • Encoding settings        : cabac=1 / ref=4 / deblock=1:-1:-1 / analyse=0x3:0x113 / me=umh / subme=7 / psy=1 / psy_rd=1.00:0.00 / mixed_ref=1 / me_range=16 / chroma_me=1 / trellis=2 / 8x8dct=1 / cqm=0 / deadzone=21,11 / fast_pskip=1 / chroma_qp_offset=-2 / threads=6 / sliced_threads=0 / nr=0 / decimate=1 / interlaced=0 / constrained_intra=0 / bframes=3 / b_pyramid=2 / b_adapt=2 / b_bias=0 / direct=3 / weightb=1 / weightp=2 / keyint=250 / keyint_min=25 / scenecut=40 / intra_refresh=0 / rc_lookahead=40 / rc=2pass / mbtree=1 / bitrate=9317 / ratetol=1.0 / qcomp=0.60 / qpmin=10 / qpmax=51 / qpstep=4 / cplxblur=20.0 / qblur=0.5 / vbv_maxrate=50000 / vbv_bufsize=50000 / ip_ratio=1.40 / aq=1:1.00 / nal_hrd=none
  • Language           : English
  • Default            : Yes
  • Forced           : Yes
  • Audio
  • ID             : 2
  • Format           : DTS
  • Format/Info          : Digital Theater Systems
  • Codec IM           : I5QAYOL9X6A8XZ
    Codec ID           : A_DTS
  • Duration           : 1 h 26 min
  • Bit rate mode          : Constant
  • Bit rate           : 1 509 kb/s
  • Channel(s)           : 6 channels
  • Channel positions        : Front: L C R, Side: L R, LFE
  • Sampling rate          : 48.0 kHz
  • Frame rate           : 93.750 FPS (512 SPF)
  • Bit depth          : 16 bits
  • Compression mode         : Lossy
  • Stream size          : 937 MiB (14%)
  • Language           : English
  • Default            : YesForced           : Yes







  • 该资源需要您回复以后 刷新网页进行下载操作

  • 1、Deep.Blue.2003.1080p.BluRay.x264-LCHD.torrent 66KB 已下载 0 次

加入蓝光高清网VIP会员  无限制下载本站所有资源---点此加入

资源下载、资源播放、字幕使用、无法下载等常见问题---点这里

回复

使用道具 举报

懒得打字嘛,点击右侧快捷回复
高级模式
B Color Image Link Quote Code Smilies 上传

本版积分规则

关注0

粉丝0

帖子69462

发布主题
最新电影 论坛
本期活动
联系我们
点击这里联系客服

服务时间:
周一到周日8:00-23:30

  • 打开微信扫一扫
    关注公众号

  • 手机QQ扫一扫
    添加客服

Archiver手机版蓝光高清网 ( 渝ICP备18006373号-2 )|网站地图

Powered by Discuz! X3.4  © 2001-2013 Comsenz Inc.