[动物世界] 黑猩猩/黑猩猩的世界 Chimpanzee.2012.1080p.BluRay.x264-IGUANA 6.55GB

[复制链接]
蓝鸟VIP会员 永久VIP 发表于 2019-1-8 21:06:40 | 显示全部楼层 |阅读模式 打印 上一主题 下一主题

马上注册,轻松下载,海量资源,让你轻松玩转社区。

您需要 登录 才可以下载或查看,没有帐号?立即注册

x

◎译  名 黑猩猩/黑猩猩的世界(港)
◎片  名 Chimpanzee
◎年  代 2012
◎产  地 美国/坦桑尼亚
◎类  别 纪录片
◎语  言 英语
◎上映日期 2012-04-20(美国)
◎IMDb评分7.2/10 from 5,377 users
◎IMDb链接http://www.imdb.com/title/tt1222815/
◎豆瓣评分 8.8/10 from 2,280 users
◎豆瓣链接 https://movie.douban.com/subject/3054147/
◎片  长 78分钟
◎导  演 艾雷斯泰·法瑟吉尔 Alastair Fothergill / Mark Linfield
◎主  演 蒂姆·艾伦 Tim Allen

◎简  介

  在非洲腹地一面广袤的森林里,小黑猩猩奥斯卡诞生于此。它终日围在妈妈伊莎身旁,不离寸步,学习各种各样的生存技能,生活充满了无限乐趣。然而对于他们这一群体的领袖弗雷迪来说,时时刻刻都不容有半分松懈。他每天都要为族群的食物而绞尽脑汁,更要时刻提防对手的入侵。弗雷迪所在的领地有一片坚果园,在食物匮乏的季节里,坚果园成为所有小动物的天堂,当然也不可避免变成一个战争多发地。比邻弗雷迪领地的,是阴郁狡猾的伤疤所率领的黑猩猩族群。伤疤一族孔武有力,野心勃勃,时刻蓄谋抢占坚果园,只可惜时机未到。
  在一个狂风暴雨的夜里,伤疤向弗雷迪发起奇袭,可怜的小奥斯卡将面对出生以来和母亲的首次分别……

◎获奖情况

  第12届凤凰城影评人协会奖(2012)
  最佳真人家庭电影(提名)
  • Video
  • ID             : 1
  • Format           : AVC
  • Format/Info          : Advanced Video Codec
  • Format profile         : [email protected]
  • Format settings        : CABAC / 4 Ref Frames
  • Format settings, CABAC       : Yes
  • Format settings, ReFrames      : 4 frames
  • Codec ID           : V_MPEG4/ISO/AVC
  • Duration           : 1 h 18 min
  • Bit rate           : 10.5 Mb/s
  • Width            : 1 920 pixels
  • Height           : 1 080 pixels
  • Display aspect ratio       : 16:9
  • Frame rate mode        : Constant
  • Frame rate           : 23.976 (24000/1001) FPS
  • Color space          : YUV
  • Chroma subsampling       : 4:2:0
  • Bit depth          : 8 bits
  • Scan type          : Progressive
  • Bits/(Pixel*Frame)       : 0.211
  • Stream size          : 5.60 GiB (85%)
  • Writing library        : x264 core 125 r2208 d9d2288
  • Encoding settings        : cabac=1 / ref=4 / deblock=1:0:0 / analyse=0x3:0x133 / me=umh / subme=7 / psy=1 / psy_rd=1.00:0.00 / mixed_ref=1 / me_range=16 / chroma_me=1 / trellis=1 / 8x8dct=1 / cqm=0 / deadzone=21,11 / fast_pskip=0 / chroma_qp_offset=-2 / threads=12 / lookahead_threads=2 / sliced_threads=0 / nr=0 / decimate=1 / interlaced=0 / bluray_compat=0 / constrained_intra=0 / bframes=3 / b_pyramid=2 / b_adapt=2 / b_bias=0 / direct=3 / weightb=1 / open_gop=0 / weightp=2 / keyint=250 / keyint_min=23 / scenecut=40 / intra_refresh=0 / rc_lookahead=50 / rc=2pass / mbtree=1 / bitrate=10483 / ratetol=1.0 / qcomp=0.60 / qpmin=0 / qpmax=69 / qpstep=4 / cplxblur=20.0 / qblur=0.5 / ip_ratio=1.40 / aq=1:1.00
  • Language           : English
  • Default            : Yes
  • Forced           : No
  • Audio
  • ID             : 2
  • Format           : DTS
  • Format/Info          : Digital Theater Systems
  • Codec ID           : A_DTS
  • Duration           : 1 h 18 min
  • Bit rate mode          : Constant
  • Bit rate           : 1 509 kb/s
  • Channel(s)           : 6 channels
  • Channel positions        : Front: L C R, Side: L R, LFE
  • Sampling rate          : 48.0 kHz
  • Frame rate           : 93.750 FPS (512 SPF)
  • Bit depth          : 24 bits
  • Compression mode         : Lossy
  • Stream size          : 845 MiB (13%)
  • Language           : English
  • Default            : Yes
  • Forced           : No
  • Text
  • ID             : 3
  • Format           : UTF-8
  • Codec ID           : S_TEXT/UTF8
  • Codec ID/Info          : UTF-8 Plain Text
  • Language           : English
  • Default            : Yes
  • Forced           : No
  • Menu
  • 00:00:00.000         : en:00:00:00.000
  • 00:03:41.388         : en:00:03:41.388
  • 00:08:46.109         : en:00:08:46.109
  • 00:13:32.645         : en:00:13:32.645
  • 00:19:07.229         : en:00:19:07.229
  • 00:25:03.585         : en:00:25:03.585
  • 00:30:22.612         : en:00:30:22.612
  • 00:33:15.285         : en:00:33:15.285
  • 00:36:21.471         : en:00:36:21.471
  • 00:39:11.641         : en:00:39:11.641
  • 00:44:43.014         : en:00:44:43.014
  • 00:47:24.425         : en:00:47:24.425
  • 00:50:35.824         : en:00:50:35.824
  • 00:53:40.884         : en:00:53:40.884
  • 00:59:57.260         : en:00:59:57.260
  • 01:05:05.902         : en:01:05:05.902
  • 01:07:56.281         : en:01:07:56.28101:11:43.132         : en:01:11:43.132

复制代码








黑猩猩智力相当于几岁, 大猩猩和黑猩猩, 黑猩猩智商, 黑猩猩队长, 黑猩猩能听懂人说话吗
  • 该资源需要您回复以后 刷新网页进行下载操作

  • 1、Chimpanzee.2012.1080p.BluRay.x264-IGUANA.torrent 66KB 已下载 0 次

加入蓝光高清网VIP会员  无限制下载本站所有资源---点此加入

资源下载、资源播放、字幕使用、无法下载等常见问题---点这里

回复

使用道具 举报

懒得打字嘛,点击右侧快捷回复
高级模式
B Color Image Link Quote Code Smilies 上传

本版积分规则

关注0

粉丝0

帖子69462

发布主题
最新电影 论坛
本期活动
联系我们
点击这里联系客服

服务时间:
周一到周日8:00-23:30

  • 打开微信扫一扫
    关注公众号

  • 手机QQ扫一扫
    添加客服

Archiver手机版蓝光高清网 ( 渝ICP备18006373号-2 )|网站地图

Powered by Discuz! X3.4  © 2001-2013 Comsenz Inc.