[动物世界] 北极故事/极地熊宝贝——拿努的历险 Arctic.Tale.2007.LiMiTED.1080p.Bluray.x264-FSiHD 6.56GB

[复制链接]
蓝鸟VIP会员 永久VIP 发表于 2019-1-8 21:06:43 | 显示全部楼层 |阅读模式 打印 上一主题 下一主题

马上注册,轻松下载,海量资源,让你轻松玩转社区。

您需要 登录 才可以下载或查看,没有帐号?立即注册

x

◎译  名 北极故事 / 极地熊宝贝——拿努的历险(台) / 小雪熊流浪记(港)
◎片  名 北极故事 Arctic Tale
◎年  代 2007
◎国  家 美国
◎类  别 纪录片 / 家庭
◎语  言 英语
◎上映日期 2007-08-17
◎IMDb评分7.0/10 from 1,692 users
◎IMDb链接http://www.imdb.com/title/tt0488508/
◎豆瓣评分 9.1/10 from 4838 users
◎豆瓣链接 https://movie.douban.com/subject/2111619/
◎片  长 96 分钟
◎导  演 Adam Ravetch / Sarah Robertson
◎主  演 奎恩·拉提法
      Katrina Agate
      Zain Ali

◎简  介 

  影片展现了在寒冷的北极,冰雪世界中的生命奇迹。
  小北极熊Nanu在妈妈的带领下,学习求生的技能,逃避天敌的骚扰,同时也要摸索着应对全新环境的挑战;小海象Seela是族群繁衍中来之不易的结晶,有妈妈和姨妈的双重保护,但是猝不及防的环境变化,让整个海象族群面临巨大的威胁。
  北极圈动物的后代和祖辈一样生息繁衍,但是,她们将面临一个截然不同的未来,如果,我们人类再不做点什么的话。

  • Video
  • ID             : 1
  • Format           : AVC
  • Format/Info          : Advanced Video Codec
  • Format profile         : [email protected]
  • Format settings        : CABAC / 4 Ref Frames
  • Format settings, CABAC       : Yes
  • Format settings, ReFrames      : 4 frames
  • Format settings, GOP       : N=1
  • Codec ID           : V_MPEG4/ISO/AVC
  • Duration           : 1 h 26 min
  • Bit rate           : 10.3 Mb/s
  • Width            : 1 920 pixels
  • Height           : 1 080 pixels
  • Display aspect ratio       : 16:9
  • Frame rate mode        : Constant
  • Frame rate           : 23.976 FPS
  • Color space          : YUV
  • Chroma subsampling       : 4:2:0
  • Bit depth          : 8 bits
  • Scan type          : Progressive
  • Bits/(Pixel*Frame)       : 0.206
  • Stream size          : 6.04 GiB (92%)
  • Writing library        : x264 core 67 r1169M ab85c9b
  • Encoding settings        : cabac=1 / ref=4 / deblock=1:0:0 / analyse=0x3:0x133 / me=umh / subme=9 / psy_rd=1.0:0.0 / mixed_ref=1 / me_range=16 / chroma_me=1 / trellis=2 / 8x8dct=1 / cqm=0 / deadzone=21,11 / chroma_qp_offset=-2 / threads=6 / nr=0 / decimate=1 / mbaff=0 / bframes=3 / b_pyramid=1 / b_adapt=1 / b_bias=0 / direct=1 / wpredb=1 / keyint=250 / keyint_min=25 / scenecut=40 / rc=2pass / bitrate=10261 / ratetol=1.0 / qcomp=0.60 / qpmin=10 / qpmax=51 / qpstep=4 / cplxblur=20.0 / qblur=0.5 / ip_ratio=1.40 / pb_ratio=1.30 / aq=1:1.00
  • Language           : English
  • Default            : Yes
  • Forced           : No
  • Audio
  • ID             : 2
  • Format           : AC-3
  • Format/Info          : Audio Coding 3
  • Commercial name        : Dolby Digital
  • Codec ID           : A_AC3
  • Duration           : 1 h 26 min
  • Bit rate mode          : Constant
  • Bit rate           : 640 kb/s
  • Channel(s)           : 6 channels
  • Channel layout         : L R C LFE Ls Rs
  • Sampling rate          : 48.0 kHz
  • Frame rate           : 31.250 FPS (1536 SPF)
  • Bit depth          : 16 bits
  • Compression mode         : Lossy
  • Stream size          : 394 MiB (6%)
  • Service kind         : Complete Main
  • Default            : Yes
  • Forced           : No
  • Text #1
  • ID             : 3
  • Format           : UTF-8
  • Codec ID           : S_TEXT/UTF8
  • Codec ID/Info          : UTF-8 Plain Text
  • Title            : eng
  • Language           : English
  • Default            : Yes
  • Forced           : No
  • Text #2
  • ID             : 4
  • Format           : UTF-8
  • Codec ID           : S_TEXT/UTF8
  • Codec ID/Info          : UTF-8 Plain Text
  • Title            : engSDH
  • Language           : English
  • Default            : NoForced           : No

复制代码





  • 该资源需要您回复以后 刷新网页进行下载操作

  • 1、Arctic.Tale.2007.LiMiTED.1080p.Bluray.x264-FSiHD.torrent 66KB 已下载 0 次
&& empty()
DSC0004.gif

加入蓝光高清网VIP会员  无限制下载本站所有资源---点此加入

资源下载、资源播放、字幕使用、无法下载等常见问题---点这里

回复

使用道具 举报

懒得打字嘛,点击右侧快捷回复
高级模式
B Color Image Link Quote Code Smilies 上传

本版积分规则

关注0

粉丝0

帖子69462

发布主题
最新电影 论坛
本期活动
联系我们
点击这里联系客服

服务时间:
周一到周日8:00-23:30

  • 打开微信扫一扫
    关注公众号

  • 手机QQ扫一扫
    添加客服

Archiver手机版蓝光高清网 ( 渝ICP备18006373号-2 )|网站地图

Powered by Discuz! X3.4  © 2001-2013 Comsenz Inc.