[探索海洋] 蓝色星球2/蓝色星球 第二季 Blue.Planet.II.2017.S01.2160p.BluRay.REMUX.HEVC.DTS-HD.MA.5.1-FGT 142.96GB

[复制链接]
蓝鸟VIP会员 永久VIP 发表于 2019-1-8 21:09:56 | 显示全部楼层 |阅读模式 打印 上一主题 下一主题

马上注册,轻松下载,海量资源,让你轻松玩转社区。

您需要 登录 才可以下载或查看,没有帐号?立即注册

x

◎译  名 蓝色星球2/蓝色星球 第二季
◎片  名 Blue Planet II
◎年  代 2017
◎产  地 英国
◎类  别 纪录片
◎语  言 英语
◎上映日期 2017-10-29(英国)/2017-10-30(中国大陆)
◎IMDb评分9.7/10 from 3,968 users
◎IMDb链接http://www.imdb.com/title/tt6769208/
◎豆瓣评分 9.9/10 from 15,063 users
◎豆瓣链接 https://movie.douban.com/subject/26979545/
◎集  数 7
◎片  长 60分钟
◎导  演 詹姆斯·霍尼伯内 James Honeyborne
◎主  演 戴维·阿滕伯勒 David Attenborough

◎简  介

  《蓝色星球II》将由大卫·爱登堡爵士主持。在长达4年的拍摄过程中, 制作团队共执行了125次的探险,水下拍摄时数长达到6000多个小时。与2001年首播的《藍色星球》相隔16年之后,制作团队透过新的科技技术突破以往限制,将许多过去未知的地带、惊人的生物及其令人瞠目结舌的举动呈现在观众眼前
  自从《蓝色星球》2001年开播以来,我们对大海之下生命的理解被彻底颠覆了。从北极熊出没的北冰洋到焕发着勃勃生机的蓝色珊瑚环礁,本系列纪录片同大家分享一些令人吃惊的新发现;邂逅在南冰洋深处神出鬼没的奇怪章鱼,观赏巨大的鲹鱼跳出水面,飞跃到半空中捕鱼;骑在虎鲸的背上,同它一起冲向鱼群。《蓝色星球2》带领我们体验让人敬畏称奇的新地方,见识魅力四射的新物种,了解非同寻常的新行为。

◎获奖情况

  第4届豆瓣电影年度榜单(2017)
  评分最高的纪录剧集
  • Video
  • ID             : 1
  • Format           : HEVC
  • Format/Info          : High Efficiency Video Coding
  • Format profile         : Main 10@L5.1@High
  • Codec ID           : V_MPEGH/ISO/HEVC
  • Duration           : 53 min 12 s
  • Bit rate           : 66.0 Mb/s
  • Width            : 3 840 pixels
  • Height           : 2 160 pixels
  • Display aspect ratio       : 16:9
  • Frame rate mode        : Constant
  • Frame rate           : 23.976 (24000/1001) FPS
  • Color space          : YUV
  • Chroma subsampling       : 4:2:0 (Type 2)
  • Bit depth          : 10 bits
  • Bits/(Pixel*Frame)       : 0.332
  • Stream size          : 24.5GB (97%)
  • Title            : Blue.Planet.II.S01E05.Green.Seas.2160p.BluRay.REMUX.HEVC.DTS-HD.MA.5.1-FGT
  • Default            : Yes
  • Forced           : No
  • Color range          : Limited
  • Color primaries        : BT.2020
  • Transfer characteristics     : PQ
  • Matrix coefficients        : BT.2020 non-constant
  • Mastering display color primaries  : Display P3
  • Mastering display luminance    : min: 0.0050 cd/m2, max: 1000 cd/m2
  • Maximum Content Light Level    : 1000 cd/m2
  • Maximum Frame-Average Light Level  : 120 cd/m2
  • Audio
  • ID             : 2
  • Format           : DTS
  • Format/Info          : Digital Theater Systems
  • Format profile         : MA / Core
  • Codec ID           : A_DTS
  • Duration           : 53 min 12 s
  • Bit rate mode          : Variable / Constant
  • Bit rate           : 2 279 kb/s / 1 509 kb/s
  • Channel(s)           : 6 channels
  • Channel positions        : Front: L C R, Side: L R, LFE
  • Sampling rate          : 48.0 kHz
  • Frame rate           : 93.750 FPS (512 SPF)
  • Bit depth          : 16 bits
  • Compression mode         : Lossless / Lossy
  • Stream size          : 868 MiB (3%)
  • Title            : Blue.Planet.II.S01E05.Green.Seas.2160p.BluRay.REMUX.HEVC.DTS-HD.MA.5.1-FGT
  • Language           : English
  • Default            : Yes
  • Forced           : No
  • Text
  • ID             : 3
  • Format           : PGS
  • Muxing mode          : zlib
  • Codec ID           : S_HDMV/PGS
  • Codec ID/Info          : Picture based subtitle format used on BDs/HD-DVDs
  • Duration           : 52 min 38 s
  • Bit rate           : 21.7 kb/s
  • Count of elements        : 758
  • Stream size          : 8.17 MiB (0%)
  • Title            : English-PGS
  • Language           : English
  • Default            : Yes
  • Forced           : No
  • Menu
  • 00:00:00.000         : en:Chapter 1
  • 00:10:17.408         : en:Chapter 2
  • 00:20:49.540         : en:Chapter 3
  • 00:30:38.336         : en:Chapter 4
  • 00:41:58.057         : en:Chapter 5

复制代码




蓝色星球第二季 2017, 蓝色星球 2017 百度云, 蓝色星球2017, 2017年 蓝色星球2, 蓝色星球2 2017
  • 该资源需要您回复以后 刷新网页进行下载操作

  • 1、Blue.Planet.II.2017.S01.2160p.BluRay.REMUX.HEVC.DTS-HD.MA.5.1-FGT (1).torrent 359KB 已下载 0 次

加入蓝光高清网VIP会员  无限制下载本站所有资源---点此加入

资源下载、资源播放、字幕使用、无法下载等常见问题---点这里

回复

使用道具 举报

懒得打字嘛,点击右侧快捷回复
高级模式
B Color Image Link Quote Code Smilies 上传

本版积分规则

关注0

粉丝0

帖子69459

发布主题
最新电影 论坛
广告位
联系我们
点击这里联系客服

服务时间:
周一到周日8:00-23:30

  • 打开微信扫一扫
    关注公众号

  • 手机QQ扫一扫
    添加客服

Archiver手机版蓝光高清网 ( 渝ICP备18006373号-2 )|网站地图

Powered by Discuz! X3.4  © 2001-2013 Comsenz Inc.