[人文地理片] 南极3D:在边缘 Antarctica.On.the.Edge.2014.1080p.BluRay.x264.DTS-HD.MA.5.1-SWTYBLZ 4.08GB

[复制链接]
蓝鸟VIP会员 永久VIP 发表于 2019-1-8 21:12:10 | 显示全部楼层 |阅读模式 打印 上一主题 下一主题

马上注册,轻松下载,海量资源,让你轻松玩转社区。

您需要 登录 才可以下载或查看,没有帐号?立即注册

x

◎译  名 南极3D:在边缘
◎片  名 Antarctica 3D: On the Edge
◎年  代 2014
◎产  地 美国
◎类  别 纪录片/短片
◎语  言 英语
◎上映日期 2014-10-19(美国)
◎IMDb评分8.3/10 from 11 users
◎IMDb链接http://www.imdb.com/title/tt4527224/
◎豆瓣评分 0/10 from 0 users
◎豆瓣链接 https://movie.douban.com/subject/26438479/
◎片  长 40分钟
◎导  演 Jon Bowermaster
◎主  演 Tilda Swinton

◎简  介

  None
  • Video
  • ID             : 1
  • Format           : AVC
  • Format/Info          : Advanced Video Codec
  • Format profile         : High@L4.1
  • Format settings        : CABAC / 5 Ref Frames
  • Format settings, CABAC       : Yes
  • Format settings, ReFrames      : 5 frames
  • Codec ID           : V_MPEG4/ISO/AVC
  • Duration           : 36 min 45 s
  • Bit rate           : 11.7 Mb/s
  • Width            : 1 920 pixels
  • Height           : 1 080 pixels
  • Display aspect ratio       : 16:9
  • Frame rate mode        : Constant
  • Frame rate           : 23.976 (24000/1001) FPS
  • Color space          : YUV
  • Chroma subsampling       : 4:2:0
  • Bit depth          : 8 bits
  • Scan type          : Progressive
  • Bits/(Pixel*Frame)       : 0.235
  • Stream size          : 3.00GB (73%)
  • Title            : Antarctica.On.the.Edge.2014.1080p.BluRay.x264.DTS-HD.MA.5.1-SWTYBLZ
  • Writing library        : x264 core 148 r2795M aaa9aa8
  • Encoding settings        : cabac=1 / ref=5 / deblock=1:0:0 / analyse=0x3:0x133 / me=umh / subme=10 / psy=1 / psy_rd=1.00:0.00 / mixed_ref=1 / me_range=24 / chroma_me=1 / trellis=2 / 8x8dct=1 / cqm=0 / deadzone=21,11 / fast_pskip=1 / chroma_qp_offset=-2 / threads=24 / lookahead_threads=4 / sliced_threads=0 / nr=0 / decimate=1 / interlaced=0 / bluray_compat=0 / constrained_intra=0 / bframes=8 / b_pyramid=2 / b_adapt=2 / b_bias=0 / direct=3 / weightb=1 / open_gop=0 / weightp=2 / keyint=240 / keyint_min=24 / scenecut=40 / intra_refresh=0 / rc_lookahead=60 / rc=crf / mbtree=1 / crf=15.0 / qcomp=0.60 / qpmin=0 / qpmax=69 / qpstep=4 / ip_ratio=1.40 / aq=1:1.00
  • Default            : Yes
  • Forced           : No
  • Audio
  • ID             : 2
  • Format           : DTS
  • Format/Info          : Digital Theater Systems
  • Format profile         : MA / Core
  • Codec ID           : A_DTS
  • Duration           : 37 min 14 s
  • Bit rate mode          : Variable / Constant
  • Bit rate           : 4 084 kb/s / 1 509 kb/s
  • Channel(s)           : 6 channels
  • Channel positions        : Front: L C R, Side: L R, LFE
  • Sampling rate          : 48.0 kHz
  • Frame rate           : 93.750 FPS (512 SPF)
  • Bit depth          : 24 bits
  • Compression mode         : Lossless / Lossy
  • Stream size          : 1.06GB (26%)
  • Title            : Antarctica.On.the.Edge.2014.1080p.BluRay.x264.DTS-HD.MA.5.1-SWTYBLZ
  • Language           : English
  • Default            : Yes
  • Forced           : No
  • Text #1
  • ID             : 3
  • Format           : UTF-8
  • Codec ID           : S_TEXT/UTF8
  • Codec ID/Info          : UTF-8 Plain Text
  • Duration           : 32 min 11 s
  • Bit rate           : 68 b/s
  • Count of elements        : 348
  • Stream size          : 16.2 KiB (0%)
  • Title            : English-SRT
  • Language           : English
  • Default            : Yes
  • Forced           : No
  • Text #2
  • ID             : 4
  • Format           : PGS
  • Muxing mode          : zlib
  • Codec ID           : S_HDMV/PGS
  • Codec ID/Info          : Picture based subtitle format used on BDs/HD-DVDs
  • Duration           : 32 min 54 s
  • Bit rate           : 42.0 kb/s
  • Count of elements        : 738
  • Stream size          : 9.89 MiB (0%)
  • Title            : English-PGS
  • Language           : English
  • Default            : No
  • Forced           : No
  • Text #3
  • ID             : 5
  • Format           : PGS
  • Muxing mode          : zlib
  • Codec ID           : S_HDMV/PGS
  • Codec ID/Info          : Picture based subtitle format used on BDs/HD-DVDs
  • Duration           : 35 min 35 s
  • Bit rate           : 40.1 kb/s
  • Count of elements        : 726
  • Stream size          : 10.2 MiB (0%)
  • Title            : French-PGS
  • Language           : French
  • Default            : No
  • Forced           : No
  • Text #4
  • ID             : 6
  • Format           : PGS
  • Muxing mode          : zlib
  • Codec ID           : S_HDMV/PGS
  • Codec ID/Info          : Picture based subtitle format used on BDs/HD-DVDs
  • Duration           : 35 min 35 s
  • Bit rate           : 35.5 kb/s
  • Count of elements        : 720
  • Stream size          : 9.03 MiB (0%)
  • Title            : Danish-PGS
  • Language           : Danish
  • Default            : No
  • Forced           : No
  • Text #5
  • ID             : 7
  • Format           : PGS
  • Muxing mode          : zlib
  • Codec ID           : S_HDMV/PGS
  • Codec ID/Info          : Picture based subtitle format used on BDs/HD-DVDs
  • Duration           : 35 min 35 s
  • Bit rate           : 38.8 kb/s
  • Count of elements        : 724
  • Stream size          : 9.87 MiB (0%)
  • Title            : Dutch-PGS
  • Language           : Dutch
  • Default            : No
  • Forced           : No
  • Text #6
  • ID             : 8
  • Format           : PGS
  • Muxing mode          : zlib
  • Codec ID           : S_HDMV/PGS
  • Codec ID/Info          : Picture based subtitle format used on BDs/HD-DVDs
  • Duration           : 35 min 35 s
  • Bit rate           : 36.7 kb/s
  • Count of elements        : 722
  • Stream size          : 9.33 MiB (0%)
  • Title            : Finnish-PGS
  • Language           : Finnish
  • Default            : No
  • Forced           : No
  • Text #7
  • ID             : 9
  • Format           : PGS
  • Muxing mode          : zlib
  • Codec ID           : S_HDMV/PGS
  • Codec ID/Info          : Picture based subtitle format used on BDs/HD-DVDs
  • Duration           : 35 min 35 s
  • Bit rate           : 43.7 kb/s
  • Count of elements        : 746
  • Stream size          : 11.1 MiB (0%)
  • Title            : German-PGS
  • Language           : German
  • Default            : No
  • Forced           : No
  • Text #8
  • ID             : 10
  • Format           : PGS
  • Muxing mode          : zlib
  • Codec ID           : S_HDMV/PGS
  • Codec ID/Info          : Picture based subtitle format used on BDs/HD-DVDs
  • Duration           : 35 min 35 s
  • Bit rate           : 36.6 kb/s
  • Count of elements        : 722
  • Stream size          : 9.30 MiB (0%)
  • Title            : Norwegian-PGS
  • Language           : Norwegian
  • Default            : No
  • Forced           : No
  • Text #9
  • ID             : 11
  • Format           : PGS
  • Muxing mode          : zlib
  • Codec ID           : S_HDMV/PGS
  • Codec ID/Info          : Picture based subtitle format used on BDs/HD-DVDs
  • Duration           : 35 min 35 s
  • Bit rate           : 36.9 kb/s
  • Count of elements        : 720
  • Stream size          : 9.38 MiB (0%)
  • Title            : Swedish-PGS
  • Language           : Swedish
  • Default            : No
  • Forced           : No
  • Menu
  • 00:00:00.000         : en:00:00:00.000
  • 00:02:31.735         : en:00:02:31.735
  • 00:03:27.833         : en:00:03:27.833
  • 00:05:08.308         : en:00:05:08.308
  • 00:07:06.718         : en:00:07:06.718
  • 00:08:50.780         : en:00:08:50.780
  • 00:11:35.111         : en:00:11:35.111
  • 00:13:09.205         : en:00:13:09.205
  • 00:14:23.488         : en:00:14:23.488
  • 00:15:53.661         : en:00:15:53.661
  • 00:18:25.021         : en:00:18:25.021
  • 00:19:22.787         : en:00:19:22.787
  • 00:20:52.877         : en:00:20:52.877
  • 00:22:28.347         : en:00:22:28.347
  • 00:25:37.619         : en:00:25:37.619
  • 00:27:12.047         : en:00:27:12.047
  • 00:29:59.840         : en:00:29:59.840
  • 00:33:41.895         : en:00:33:41.895

复制代码



点击文件名下载附件

the north face 南极, 南极石, 南极, 南极之恋, 南极大冒险
  • 该资源需要您回复以后 刷新网页进行下载操作

  • 1、Antarctica.On.the.Edge.2014.1080p.BluRay.x264.DTS-HD.MA.5.1-SWTYBLZ (1).torrent 82KB 已下载 0 次

加入蓝光高清网VIP会员  无限制下载本站所有资源---点此加入

资源下载、资源播放、字幕使用、无法下载等常见问题---点这里

回复

使用道具 举报

懒得打字嘛,点击右侧快捷回复
高级模式
B Color Image Link Quote Code Smilies 上传

本版积分规则

关注0

粉丝0

帖子69457

发布主题
最新电影 论坛
广告位
联系我们
点击这里联系客服

服务时间:
周一到周日8:00-23:30

  • 打开微信扫一扫
    关注公众号

  • 手机QQ扫一扫
    添加客服

Archiver手机版蓝光高清网 ( 渝ICP备18006373号-2 )|网站地图

Powered by Discuz! X3.4  © 2001-2013 Comsenz Inc.