[动物世界] 冰河时代的巨人 Titans.of.the.Ice.Age.2013.1080p.BluRay.x264.DTS-SWTYBLZ 3.50GB

[复制链接]
蓝鸟VIP会员 永久VIP 发表于 2019-1-8 21:12:16 | 显示全部楼层 |阅读模式 打印 上一主题 下一主题

马上注册,轻松下载,海量资源,让你轻松玩转社区。

您需要 登录 才可以下载或查看,没有帐号?立即注册

x

◎译  名 冰河时代的巨人
◎片  名 Titans of the Ice Age
◎年  代 2013
◎产  地 美国
◎类  别 纪录片
◎语  言 英语
◎上映日期 2013-02-15
◎IMDb评分6.9/10 from 106 users
◎IMDb链接http://www.imdb.com/title/tt2653370/
◎豆瓣评分 7.5/10 from 22 users
◎豆瓣链接 https://movie.douban.com/subject/22991882/
◎导  演 大卫·克拉克 David Clark
◎主  演 克里斯托弗·普卢默 Christopher Plummer

◎简  介

  《冰河时代的巨人》引领观众回到现代文明诞生前的一万年前,在那个历史时期,人类与巨型动物共同生存在奇异壮观的冰封大陆上。本片尽可能真实的还原了北美、欧洲、亚洲大陆的壮丽地貌,利用炫目的CGI技术重塑了长毛象、剑齿虎、冰原狼等冰河时代生物,对冰河时代感兴趣的观众们来说,本片绝对是不应错过的一次饕餮盛宴。与此同时,影片还探索了可持续环境发展,在极端环境中存活等重要课题。
  • Video
  • ID             : 1
  • Format           : AVC
  • Format/Info          : Advanced Video Codec
  • Format profile         : High@L4.1
  • Format settings        : CABAC / 5 Ref Frames
  • Format settings, CABAC       : Yes
  • Format settings, ReFrames      : 5 frames
  • Codec ID           : V_MPEG4/ISO/AVC
  • Duration           : 38 min 4 s
  • Bit rate           : 11.6 Mb/s
  • Width            : 1 920 pixels
  • Height           : 1 080 pixels
  • Display aspect ratio       : 16:9
  • Frame rate mode        : Constant
  • Frame rate           : 23.976 (24000/1001) FPS
  • Color space          : YUV
  • Chroma subsampling       : 4:2:0
  • Bit depth          : 8 bits
  • Scan type          : Progressive
  • Bits/(Pixel*Frame)       : 0.234
  • Stream size          : 3.09GB (88%)
  • Title            : Titans.of.the.Ice.Age.2013.1080p.BluRay.x264.DTS-SWTYBLZ
  • Writing library        : x264 core 148 r2795M aaa9aa8
  • Encoding settings        : cabac=1 / ref=5 / deblock=1:0:0 / analyse=0x3:0x133 / me=umh / subme=10 / psy=1 / psy_rd=1.00:0.00 / mixed_ref=1 / me_range=24 / chroma_me=1 / trellis=2 / 8x8dct=1 / cqm=0 / deadzone=21,11 / fast_pskip=1 / chroma_qp_offset=-2 / threads=24 / lookahead_threads=4 / sliced_threads=0 / nr=0 / decimate=1 / interlaced=0 / bluray_compat=0 / constrained_intra=0 / bframes=8 / b_pyramid=2 / b_adapt=2 / b_bias=0 / direct=3 / weightb=1 / open_gop=0 / weightp=2 / keyint=240 / keyint_min=24 / scenecut=40 / intra_refresh=0 / rc_lookahead=60 / rc=crf / mbtree=1 / crf=17.0 / qcomp=0.60 / qpmin=0 / qpmax=69 / qpstep=4 / ip_ratio=1.40 / aq=1:1.00
  • Language           : English
  • Default            : Yes
  • Forced           : No
  • Audio
  • ID             : 2
  • Format           : DTS
  • Format/Info          : Digital Theater Systems
  • Codec ID           : A_DTS
  • Duration           : 38 min 33 s
  • Bit rate mode          : Constant
  • Bit rate           : 1 509 kb/s
  • Channel(s)           : 6 channels
  • Channel positions        : Front: L C R, Side: L R, LFE
  • Sampling rate          : 48.0 kHz
  • Frame rate           : 93.750 FPS (512 SPF)
  • Bit depth          : 24 bits
  • Compression mode         : Lossy
  • Stream size          : 416 MiB (12%)
  • Title            : Titans.of.the.Ice.Age.2013.1080p.BluRay.x264.DTS-SWTYBLZ
  • Language           : English
  • Default            : Yes
  • Forced           : No
  • Text
  • ID             : 3
  • Format           : UTF-8
  • Codec ID           : S_TEXT/UTF8
  • Codec ID/Info          : UTF-8 Plain Text
  • Duration           : 34 min 36 s
  • Bit rate           : 66 b/s
  • Count of elements        : 335
  • Stream size          : 16.8 KiB (0%)
  • Title            : English-SRT
  • Language           : English
  • Default            : Yes
  • Forced           : No
  • Menu
  • 00:00:00.000         : en:00:00:00.000
  • 00:02:38.408         : en:00:02:38.408
  • 00:04:45.368         : en:00:04:45.368
  • 00:06:17.168         : en:00:06:17.168
  • 00:09:14.387         : en:00:09:14.387
  • 00:11:03.788         : en:00:11:03.788
  • 00:14:04.594         : en:00:14:04.594
  • 00:16:29.655         : en:00:16:29.655
  • 00:18:29.900         : en:00:18:29.900
  • 00:19:40.638         : en:00:19:40.638
  • 00:21:39.256         : en:00:21:39.256
  • 00:22:16.168         : en:00:22:16.168
  • 00:23:29.325         : en:00:23:29.325
  • 00:26:55.364         : en:00:26:55.364
  • 00:28:36.089         : en:00:28:36.089
  • 00:29:43.365         : en:00:29:43.365
  • 00:33:13.366         : en:00:33:13.366
  • 00:35:58.865         : en:00:35:58.865

复制代码






  • 该资源需要您回复以后 刷新网页进行下载操作

  • 1、Titans.of.the.Ice.Age.2013.1080p.BluRay.x264.DTS-SWTYBLZ.torrent 71KB 已下载 0 次
&& empty()
DSC0007.gif

加入蓝光高清网VIP会员  无限制下载本站所有资源---点此加入

资源下载、资源播放、字幕使用、无法下载等常见问题---点这里

回复

使用道具 举报

懒得打字嘛,点击右侧快捷回复
高级模式
B Color Image Link Quote Code Smilies 上传

本版积分规则

关注0

粉丝0

帖子69459

发布主题
最新电影 论坛
广告位
联系我们
点击这里联系客服

服务时间:
周一到周日8:00-23:30

  • 打开微信扫一扫
    关注公众号

  • 手机QQ扫一扫
    添加客服

Archiver手机版蓝光高清网 ( 渝ICP备18006373号-2 )|网站地图

Powered by Discuz! X3.4  © 2001-2013 Comsenz Inc.