[人文地理片] [2014][法国][纪录片][萨尔加多的凝视/大地之盐/地球之盐][REMUX][1080P-20.14G][MKV]DTS

[复制链接]
蓝鸟VIP会员 永久VIP 发表于 2019-1-8 21:15:13 | 显示全部楼层 |阅读模式 打印 上一主题 下一主题

马上注册,轻松下载,海量资源,让你轻松玩转社区。

您需要 登录 才可以下载或查看,没有帐号?立即注册

x
[2014][法国][纪录片][萨尔加多的凝视/大地之盐/地球之盐][REMUX][1080P-20.14G][MKV]DTS


◎影片基本信息
大小: 20.14G
清晰度: 1080P
视频: MKV
豆瓣评分: 9.1
导演: 维姆·文德斯 / 朱利安·诺里贝罗·萨尔加多
编剧: 维姆·文德斯 / 朱利安·诺里贝罗·萨尔加多 / David Rosier / Camille Delafon
主演: 塞巴斯蒂昂·萨尔加多 / 维姆·文德斯 / 朱利安·诺里贝罗·萨尔加多 / Lélia Wanick Salgado
类型: 纪录片 / 传记
制片国家/地区: 法国 / 意大利 / 巴西
语言: 法语 / 英语 / 葡萄牙语
上映日期: 2014-10-15(法国)
片长: 110分钟
又名: 萨尔加多的凝视(台) / 大地之盐 / Le sel de la terre
影片: The.Salt.of.the.Earth.2014.DOCU.1080p.BluRay.REMUX.AVC.DTS-HD.MA.5.1-RARBG

◎剧情简介
   他的镜头是打开的心眼,在最细微处直视灵魂,看到巴西巨坑五万掏金者的集体面相,看到科威特油井冲天大火的真正英雄,看到非洲的死亡延续着生存。每次的拍摄方案都是经年的万里长征,是人神共舞,每次成果都引起巨大回响。合导的儿子伴着老爸远征,只见他用海象的视角,拍出但丁的地狱。再来到地球重病的现在,他重建了一座森林。云温达斯最心仪的传奇摄影师萨尔加多,就是大地之盐。获康城影展某种观点评审团特别奖,入围角逐奥斯卡最佳纪录片。
-------------------------
  • Video
  • ID             : 1
  • Format           : AVC
  • Format/Info          : Advanced Video Codec
  • Format profile         : [email protected]
  • Format settings, CABAC       : Yes
  • Format settings, ReFrames      : 2 frames
  • Codec ID           : V_MPEG4/ISO/AVC
  • Duration           : 1h 50mn
  • Bit rate mode          : Variable
  • Width            : 1 920 pixels
  • Height           : 1 080 pixels
  • Display aspect ratio       : 16:9
  • Frame rate mode        : Constant
  • Frame rate           : 23.976 fps
  • Color space          : YUV
  • Chroma subsampling       : 4:2:0
  • Bit depth          : 8 bits
  • Scan type          : Progressive
  • Title            : The.Salt.of.the.Earth.2014.DOCU.1080p.BluRay.REMUX.AVC.DTS-HD.MA.5.1-RARBG
  • Language           : English
  • Default            : No
  • Forced           : No
  • Audio #1
  • ID             : 2
  • Format           : DTS
  • Format/Info          : Digital Theater Systems
  • Format profile         : MA / Core
  • Mode             : 16
  • Format settings, Endianness    : Big
  • Codec ID           : A_DTS
  • Duration           : 1h 50mn
  • Bit rate mode          : Variable
  • Bit rate           : Unknown / 1 509 Kbps
  • Channel(s)           : 6 channels
  • Channel positions        : Front: L C R, Side: L R, LFE
  • Sampling rate          : 48.0 KHz
  • Bit depth          : 24 bits
  • Compression mode         : Lossless / Lossy
  • Title            : The.Salt.of.the.Earth.2014.DOCU.1080p.BluRay.REMUX.AVC.DTS-HD.MA.5.1-RARBG
  • Language           : English
  • Default            : Yes
  • Forced           : No
  • Audio #2
  • ID             : 3
  • Format           : DTS
  • Format/Info          : Digital Theater Systems
  • Mode             : 16
  • Format settings, Endianness    : Big
  • Codec ID           : A_DTS
  • Duration           : 1h 50mn
  • Bit rate mode          : Constant
  • Bit rate           : 1 509 Kbps
  • Channel(s)           : 6 channels
  • Channel positions        : Front: L C R, Side: L R, LFE
  • Sampling rate          : 48.0 KHz
  • Bit depth          : 24 bits
  • Compression mode         : Lossy
  • Stream size          : 1.16 GiB (6%)
  • Title            : The.Salt.of.the.Earth.2014.DOCU.1080p.BluRay.REMUX.AVC.DTS-HD.MA.5.1-RARBG
  • Language           : English
  • Default            : No
  • Forced           : No
  • Audio #3
  • ID             : 4
  • Format           : AC-3
  • Format/Info          : Audio Coding 3
  • Mode extension         : CM (complete main)
  • Format settings, Endianness    : Big
  • Codec ID           : A_AC3
  • Duration           : 1h 50mn
  • Bit rate mode          : Constant
  • Bit rate           : 640 Kbps
  • Channel(s)           : 6 channels
  • Channel positions        : Front: L C R, Side: L R, LFE
  • Sampling rate          : 48.0 KHz
  • Bit depth          : 16 bits
  • Compression mode         : Lossy
  • Delay relative to video      : 24ms
  • Stream size          : 505 MiB (2%)
  • Title            : The.Salt.of.the.Earth.2014.DOCU.1080p.BluRay.REMUX.AVC.DTS-HD.MA.5.1-RARBG
  • Language           : English
  • Default            : No
  • Forced           : No
  • Audio #4
  • ID             : 5
  • Format           : AC-3
  • Format/Info          : Audio Coding 3
  • Format profile         : Dolby Digital
  • Mode extension         : CM (complete main)
  • Format settings, Endianness    : Big
  • Codec ID           : A_AC3
  • Duration           : 1h 50mn
  • Bit rate mode          : Constant
  • Bit rate           : 192 Kbps
  • Channel(s)           : 2 channels
  • Channel positions        : Front: L R
  • Sampling rate          : 48.0 KHz
  • Bit depth          : 16 bits
  • Compression mode         : Lossy
  • Delay relative to video      : 24ms
  • Stream size          : 151 MiB (1%)
  • Title            : The.Salt.of.the.Earth.2014.DOCU.1080p.BluRay.REMUX.AVC.DTS-HD.MA.5.1-RARBG
  • Language           : English
  • Default            : No
  • Forced           : No
  • Text #1
  • ID             : 6
  • Format           : PGS
  • Muxing mode          : zlib
  • Codec ID           : S_HDMV/PGS
  • Codec ID/Info          : Picture based subtitle format used on BDs/HD-DVDs
  • Language           : English
  • Default            : Yes
  • Forced           : No
  • Text #2
  • ID             : 7
  • Format           : PGS
  • Muxing mode          : zlib
  • Codec ID           : S_HDMV/PGS
  • Codec ID/Info          : Picture based subtitle format used on BDs/HD-DVDs
  • Language           : English
  • Default            : No
  • Forced           : No
  • Text #3
  • ID             : 8
  • Format           : PGS
  • Muxing mode          : zlib
  • Codec ID           : S_HDMV/PGS
  • Codec ID/Info          : Picture based subtitle format used on BDs/HD-DVDs
  • Language           : English
  • Default            : No
  • Forced           : No
  • Text #4
  • ID             : 9
  • Format           : PGS
  • Muxing mode          : zlib
  • Codec ID           : S_HDMV/PGS
  • Codec ID/Info          : Picture based subtitle format used on BDs/HD-DVDs
  • Language           : English
  • Default            : No
  • Forced           : No
  • Menu
  • 00:00:00.000         : en:Chapter 01
  • 00:09:22.728         : en:Chapter 02
  • 00:20:05.996         : en:Chapter 03
  • 00:30:15.647         : en:Chapter 04
  • 00:37:22.657         : en:Chapter 05
  • 00:41:00.875         : en:Chapter 06
  • 00:44:24.662         : en:Chapter 07
  • 00:47:48.782         : en:Chapter 08
  • 00:55:18.231         : en:Chapter 09
  • 00:59:50.295         : en:Chapter 10
  • 01:05:09.572         : en:Chapter 11
  • 01:14:24.418         : en:Chapter 12
  • 01:20:14.267         : en:Chapter 13
  • 01:27:40.964         : en:Chapter 14
  • 01:37:54.994         : en:Chapter 1501:43:14.897         : en:Chapter 16

复制代码

-------------------------
◎精彩剧照







-------------------------
[以上高清电影剧照来自互联网,不代表此片高清剧照]
郑重声明:本站提供的所有高清电影作品均是在网上搜集,任何涉及商业盈利目的均不得使用,否则产生的一切后果将由您自己承担!本站将不对本站的任何内容负任何法律责任!该下载内容仅做宽带测试使用,请在下载后24小时内删除。请购买正
版!
-------------------------
◎种子下载地址


萨尔加多的凝视, 萨尔加多, 塞巴斯蒂安 萨尔加多
  • 该资源需要您回复以后 刷新网页进行下载操作

  • 1、www.1080pro.net出品[2014][法国][纪录片][萨尔加多的凝视大地之盐地球之盐][REMUX][1.torrent 51KB 已下载 1 次

加入蓝光高清网VIP会员  无限制下载本站所有资源---点此加入

资源下载、资源播放、字幕使用、无法下载等常见问题---点这里

回复

使用道具 举报

懒得打字嘛,点击右侧快捷回复
高级模式
B Color Image Link Quote Code Smilies 上传

本版积分规则

关注0

粉丝0

帖子69459

发布主题
最新电影 论坛
广告位
联系我们
点击这里联系客服

服务时间:
周一到周日8:00-23:30

  • 打开微信扫一扫
    关注公众号

  • 手机QQ扫一扫
    添加客服

Archiver手机版蓝光高清网 ( 渝ICP备18006373号-2 )|网站地图

Powered by Discuz! X3.4  © 2001-2013 Comsenz Inc.