[传记纪录片] [2014][英国][纪录][所有伤痛All.This.Mayhem.2014.DOCU.1080p.BluRay.x264.DTS-RARBG][1080P-9.22G][MKV]DTS

[复制链接]
蓝鸟VIP会员 永久VIP 发表于 2019-1-8 21:15:28 | 显示全部楼层 |阅读模式 打印 上一主题 下一主题

马上注册,轻松下载,海量资源,让你轻松玩转社区。

您需要 登录 才可以下载或查看,没有帐号?立即注册

x
[2014][英国][纪录][所有伤痛All.This.Mayhem.2014.DOCU.1080p.BluRay.x264.DTS-RARBG][1080P-9.22G][MKV]DTS

◎影片基本信息
大小: 9.22G
清晰度: 1080P
视频: MKV
导演: Eddie Martin
主演: Tas Pappas / Ben Pappas
类型: 纪录片
制片国家/地区: 英国
语言: 英语 / 法语 / 西班牙语
上映日期: 2014-06-05(澳大利亚)
片长: 103分钟
影片: All.This.Mayhem.2014.DOCU.720p.BluRay.x264.DTS-RARBG

◎剧情简介
   影片记录了一对兄弟从墨尔本街头的小混混成长为滑板高手的过程。脾气暴躁的哥哥Tas Pappas很早就辍学,并加入美国的滑板圈。他最初身无分文,晚上只能睡在街边,但事情很快有了转机。天生热爱滑板运动的弟弟Ben前来投奔他,兄弟二人的滑板技术逐渐为人肯定,然而就在此时事情再次发生转机。导演在影片中使用了大量的历史影像展示滑板这项运动中所蕴涵的魔力,这部电影既是对所谓“成功”的一次真实呈现,也是对兄弟情谊的真切赞叹。
-------------------------
  • Video
  • ID             : 1
  • Format           : AVC
  • Format/Info          : Advanced Video Codec
  • Format profile         : [email protected]
  • Format settings, CABAC       : Yes
  • Format settings, ReFrames      : 4 frames
  • Codec ID           : V_MPEG4/ISO/AVC
  • Duration           : 1h 43mn
  • Bit rate           : 10.9 Mbps
  • Nominal bit rate         : 11.5 Mbps
  • Width            : 1 920 pixels
  • Height           : 1 036 pixels
  • Display aspect ratio       : 1.85:1
  • Frame rate mode        : Constant
  • Frame rate           : 23.976 fps
  • Color space          : YUV
  • Chroma subsampling       : 4:2:0
  • Bit depth          : 8 bits
  • Scan type          : Progressive
  • Bits/(Pixel*Frame)       : 0.229
  • Stream size          : 7.94 GiB (86%)
  • Title            : All.This.Mayhem.2014.DOCU.1080p.BluRay.x264.DTS-RARBG
  • Writing library        : x264 core 144 r96 40bb568
  • Encoding settings        : cabac=1 / ref=4 / deblock=1:-2:-2 / analyse=0x3:0x113 / me=umh / subme=7 / psy=1 / psy_rd=1.00:0.15 / mixed_ref=1 / me_range=16 / chroma_me=1 / trellis=1 / 8x8dct=1 / cqm=0 / deadzone=21,11 / fast_pskip=1 / chroma_qp_offset=-3 / threads=12 / lookahead_threads=3 / sliced_threads=0 / nr=0 / decimate=1 / interlaced=0 / bluray_compat=0 / constrained_intra=0 / bframes=3 / b_pyramid=2 / b_adapt=2 / b_bias=0 / direct=3 / weightb=1 / open_gop=0 / weightp=2 / keyint=250 / keyint_min=25 / scenecut=40 / intra_refresh=0 / rc_lookahead=50 / rc=abr / mbtree=1 / bitrate=11500 / ratetol=1.0 / qcomp=0.60 / qpmin=0 / qpmax=69 / qpstep=4 / vbv_maxrate=31250 / vbv_bufsize=31250 / nal_hrd=none / filler=0 / ip_ratio=1.40 / aq=1:1.00
  • Language           : English
  • Default            : Yes
  • Forced           : No
  • Audio
  • ID             : 2
  • Format           : DTS
  • Format/Info          : Digital Theater Systems
  • Mode             : 16
  • Format settings, Endianness    : Big
  • Codec ID           : A_DTS
  • Duration           : 1h 43mn
  • Bit rate mode          : Constant
  • Bit rate           : 1 509 Kbps
  • Channel(s)           : 6 channels
  • Channel positions        : Front: L C R, Side: L R, LFE
  • Sampling rate          : 48.0 KHz
  • Bit depth          : 16 bits
  • Compression mode         : Lossy
  • Stream size          : 1.10 GiB (12%)
  • Title            : All.This.Mayhem.2014.DOCU.1080p.BluRay.x264.DTS-RARBG
  • Language           : English
  • Default            : Yes
  • Forced           : No
  • Text
  • ID             : 3
  • Format           : UTF-8
  • Codec ID           : S_TEXT/UTF8
  • Codec ID/Info          : UTF-8 Plain Text
  • Language           : English
  • Default            : Yes
  • Forced           : No
  • Menu
  • 00:00:00.000         : en:Chapter 01
  • 00:07:45.756         : en:Chapter 02
  • 00:13:46.283         : en:Chapter 03
  • 00:21:27.828         : en:Chapter 04
  • 00:30:17.899         : en:Chapter 05
  • 00:37:38.464         : en:Chapter 06
  • 00:45:27.516         : en:Chapter 07
  • 00:51:00.474         : en:Chapter 08
  • 01:03:03.529         : en:Chapter 09
  • 01:08:45.871         : en:Chapter 10
  • 01:15:02.498         : en:Chapter 11
  • 01:25:55.150         : en:Chapter 12
  • 01:30:59.787         : en:Chapter 1301:39:45.938         : en:Chapter 14

复制代码

-------------------------
◎精彩剧照



-------------------------
[以上高清电影剧照来自互联网,不代表此片高清剧照]
郑重声明:本站提供的所有高清电影作品均是在网上搜集,任何涉及商业盈利目的均不得使用,否则产生的一切后果将由您自己承担!本站将不对本站的任何内容负任何法律责任!该下载内容仅做宽带测试使用,请在下载后24小时内删除。请购买正
版!
-------------------------
◎种子下载地址


  • 该资源需要您回复以后 刷新网页进行下载操作

  • 1、www.1080pro.net出品[2014][英国][纪录][所有伤痛All.This.Mayhem.2014.DOCU.1080p.Bl.torrent 93KB 已下载 0 次

加入蓝光高清网VIP会员  无限制下载本站所有资源---点此加入

资源下载、资源播放、字幕使用、无法下载等常见问题---点这里

回复

使用道具 举报

懒得打字嘛,点击右侧快捷回复
高级模式
B Color Image Link Quote Code Smilies 上传

本版积分规则

关注0

粉丝0

帖子69457

发布主题
最新电影 论坛
广告位
联系我们
点击这里联系客服

服务时间:
周一到周日8:00-23:30

  • 打开微信扫一扫
    关注公众号

  • 手机QQ扫一扫
    添加客服

Archiver手机版蓝光高清网 ( 渝ICP备18006373号-2 )|网站地图

Powered by Discuz! X3.4  © 2001-2013 Comsenz Inc.