[人文地理片] [2012][美国][纪录片][国家地理:狂野印度/印度在野/][蓝光原盘][1080I-24.79G][M2TS]DTS

[复制链接]
蓝鸟VIP会员 永久VIP 发表于 2019-1-8 21:15:45 | 显示全部楼层 |阅读模式 打印 上一主题 下一主题

马上注册,轻松下载,海量资源,让你轻松玩转社区。

您需要 登录 才可以下载或查看,没有帐号?立即注册

x
[2012][美国][纪录片][国家地理:狂野印度/印度在野/][蓝光原盘][1080I-24.79G][M2TS]DTS


◎影片基本信息
大小: 24.79G
清晰度: 1080P
视频: MKV
豆瓣评分: 8.4
类型: 纪录片
制片国家/地区: 美国
语言: 英语
首播: 2012-04(美国)
集数: 3
又名: 印度在野 / Wild India
影片: Secrets of Wild India 2011 Blu-Ray 1080i AVC DTS-HD5.1-TTG

◎剧情简介
   印度人口超過十億,佔全球總人口數一半,卻只有百分之二的陸地。而且印度仍然擁有野性的一面。兇猛的大型掠食者遍佈這個地區,其中不乏稀有珍貴的動物。狂野印度要讚頌印度獨特又多變的景觀,帶你了解在這塊土地上發生的大小事情。這套三部曲中,每一集會介紹一種生態系統,快速地看過所有生命如何在獨特的環境下生存。
  充滿美麗和怪異的分裂、苦難、死亡和新生命,這套節目帶領觀眾近距離觀察奇妙的野生動物,是亞洲自然歷史上的最珍貴的記錄片之一。
-------------------------
  • Disc Title: Secrets of Wild India 2011 Blu-Ray 1080i AVC DTS-HDHR5.1-TTG
  • Disc Size:  26,615,980,518 bytes
  • Protection: AACS
  • BD-Java:  No
  • Extras:   50Hz Content
  • BDInfo:   0.5.8
  • PLAYLIST REPORT:
  • Name:       00009.MPLS
  • Length:     2:24:03.008 (h:m:s.ms)
  • Size:       26,429,282,304 bytes
  • Total Bitrate:    24.46 Mbps
  • VIDEO:
  • Codec       Bitrate     Description
  • -----       -------     -----------
  • MPEG-4 AVC Video  20000 kbps    1080i / 25 fps / 16:9 / High Profile 4.1
  • AUDIO:
  • Codec         Language  Bitrate   Description
  • -----         --------  -------   -----------
  • DTS-HD High-Res Audio   English   3018 kbps   5.1 / 48 kHz / 3018 kbps / 16-bit (DTS Core: 5.1 / 48 kHz / 1509 kbps / 16-bit)
  • SUBTITLES:
  • Codec         Language  Bitrate   Description
  • -----         --------  -------   -----------
  • Presentation Graphics   Chinese   26.382 kbps
  • Presentation Graphics   Chinese   27.277 kbps
  • Presentation Graphics   English   22.895 kbps
  • FILES:
  • Name    Time In   Length    Size    Total Bitrate
  • ----    -------   ------    ----    -------------
  • 00005.M2TS  0:00:00.000 0:48:01.034 8,811,663,360 24,468
  • 00006.M2TS  0:48:01.034 0:48:00.992 8,807,811,072 24,45800007.M2TS  1:36:02.026 0:48:00.981 8,809,807,872 24,463

复制代码

-------------------------
◎精彩剧照

-------------------------
[以上高清电影剧照来自互联网,不代表此片高清剧照]
郑重声明:本站提供的所有高清电影作品均是在网上搜集,任何涉及商业盈利目的均不得使用,否则产生的一切后果将由您自己承担!本站将不对本站的任何内容负任何法律责任!该下载内容仅做宽带测试使用,请在下载后24小时内删除。请购买正
版!
-------------------------
1, 字幕感谢MYL@纪录片之家,骆驼样子@纪录片之家的听译和翻译。
2, 母盘用的是俄站DIY版,去除俄语音轨俄语字幕,追加简繁英三条字幕。
3, 制作平台:TS。已补全BD目录,PC全平台通过测试。如有问题PM反映感谢。

第一集以大象的生活为主线,广泛介绍了犀牛、白眉叶猴等各种当地珍稀野生动物,以及布拉马普特拉河中下游独特的自然环境。

第二集以孟加拉虎的生活为主线,广泛介绍了印度野犬、黑鹿、白斑鹿、印度野牛等各种当地珍稀野生动物,以及印度中部丛林独特的自然环境。

第三集以亚洲狮的生活为主线,广泛介绍了印度野驴、蓑羽鹤、印度瞪羚、长喙秃鹫等各种当地珍稀野生动物,以及印度西北部沙漠的自然环境。
◎种子下载地址
蓝光原盘优先考虑115离线,其次迅雷VIP离线加速,若没有以上条件,请使用最新版的迅雷,因为老版本迅雷有一定几率获取资源困难,可能会卡半天,新版本无此问题。


阅读是最好的教育, 教师阅读的好处, 教师阅读的好书推荐, 阅读是教师最好的修行, 如何做好阅读教学
  • 该资源需要您回复以后 刷新网页进行下载操作

  • 1、www.1080pro.net出品[2012][美国][纪录片][国家地理:狂野印度印度在野][蓝光原盘][10.torrent 66KB 已下载 1 次

加入蓝光高清网VIP会员  无限制下载本站所有资源---点此加入

资源下载、资源播放、字幕使用、无法下载等常见问题---点这里

回复

使用道具 举报

懒得打字嘛,点击右侧快捷回复
高级模式
B Color Image Link Quote Code Smilies 上传

本版积分规则

关注0

粉丝0

帖子69462

发布主题
最新电影 论坛
本期活动
联系我们
点击这里联系客服

服务时间:
周一到周日8:00-23:30

  • 打开微信扫一扫
    关注公众号

  • 手机QQ扫一扫
    添加客服

Archiver手机版蓝光高清网 ( 渝ICP备18006373号-2 )|网站地图

Powered by Discuz! X3.4  © 2001-2013 Comsenz Inc.