[恐怖] 养鬼吃人/猛鬼追魂 Hellraiser.1987.REMASTERED.1080p.BluRay.X264-AMIABLE 9.83GB

[复制链接]
蓝鸟 发表于 2019-9-3 08:45:20 | 显示全部楼层 |阅读模式 打印 上一主题 下一主题

养鬼吃人/猛鬼追魂 Hellraiser.1987.REMASTERED.1080p.BluRay.X264-AMIABLE 9.83GB-1.jpg
◎译  名 养鬼吃人/猛鬼追魂
◎片  名 Hellraiser
◎年  代 1987
◎产  地 英国
◎类  别 恐怖
◎语  言 英语
◎上映日期 1987-09-11
◎IMDb评分7.0/10 from 86,434 users
◎IMDb链接http://www.imdb.com/title/tt0093177/
◎豆瓣评分 7.3/10 from 7,377 users
◎豆瓣链接 https://movie.douban.com/subject/1293198/
◎片  长 94 分钟/Sweden: 89 分钟(cut version)/Finland: 86 分钟(cut)
◎导  演 克里夫·巴克 Clive Barker
◎主  演 Andrew Robinson
      克莱儿·希金斯 Clare Higgins
      阿什丽·劳伦斯 Ashley Laurence
      Sean Chapman

◎简  介

  英国人弗兰克?科顿(Sean Chapman 饰)在北非发现一个神奇的魔方,回到家后,弗兰克通过某种神秘的仪式打开了魔方和另一个世界的通道,魔鬼赛诺贝斯降临人间,弗兰克也为其所杀。在此之后,弗兰克的哥哥莱瑞(Andrew Robinson 饰)和妻子朱莉(Clare Higgins 饰)搬到这座房子里。朱莉是莱瑞的新任妻子,她曾背着丈夫和弗兰克有染。
  莱瑞搬家具时不慎弄伤右手,血滴到阁楼地板上,偏巧使埋在下面的弗兰克得以复苏。为了使情人恢复本来面貌,朱莉开始想方设法为其奉上活人的血肉……
  本片是惊悚小说家可利夫?巴克(Clive Barker)根据自己的同名作品改编,并荣获1988年亚佛里亚兹奇幻电影节恐怖单元奖、1988年葡萄牙奇幻国际电影节影评人奖。


该资源信息参数


  1. Video
  2. ID             : 1
  3. Format           : AVC
  4. Format/Info          : Advanced Video Codec
  5. Format profile         : [email protected]
  6. Format settings, CABAC       : Yes
  7. Format settings, ReFrames      : 4 frames
  8. Codec ID           : V_MPEG4/ISO/AVC
  9. Duration           : 1h 33mn
  10. Bit rate           : 13.6 Mbps
  11. Width            : 1 920 pixels
  12. Height           : 1 040 pixels
  13. Display aspect ratio       : 1.85:1
  14. Frame rate mode        : Constant
  15. Frame rate           : 23.976 (24000/1001) fps
  16. Color space          : YUV
  17. Chroma subsampling       : 4:2:0
  18. Bit depth          : 8 bits
  19. Scan type          : Progressive
  20. Bits/(Pixel*Frame)       : 0.284
  21. Stream size          : 8.65 GiB (88%)
  22. Writing library        : x264 core 150 r2833 df79067
  23. Encoding settings        : cabac=1 / ref=4 / deblock=1:-3:-3 / analyse=0x3:0x133 / me=umh / subme=10 / psy=1 / psy_rd=1.00:0.00 / mixed_ref=1 / me_range=32 / chroma_me=1 / trellis=2 / 8x8dct=1 / cqm=0 / deadzone=21,11 / fast_pskip=0 / chroma_qp_offset=-2 / threads=24 / lookahead_threads=4 / sliced_threads=0 / nr=0 / decimate=1 / interlaced=0 / bluray_compat=0 / constrained_intra=0 / bframes=8 / b_pyramid=2 / b_adapt=2 / b_bias=0 / direct=3 / weightb=1 / open_gop=0 / weightp=2 / keyint=240 / keyint_min=24 / scenecut=40 / intra_refresh=0 / rc_lookahead=60 / rc=2pass / mbtree=1 / bitrate=13575 / ratetol=1.0 / qcomp=0.60 / qpmin=0 / qpmax=69 / qpstep=4 / cplxblur=20.0 / qblur=0.5 / ip_ratio=1.30 / aq=3:0.75
  24. Default            : Yes
  25. Forced           : No
  26. Statistics Tags Issue      : no_variable_data 1970-01-01 00:00:00 / no_variable_data 2010-02-22 21:41:29
  27. FromStats_BitRate        : 13563936
  28. FromStats_Duration       : 01:33:20.595000000
  29. FromStats_FrameCount       : 134280
  30. FromStats_StreamSize       : 9495764172

  31. Audio
  32. ID             : 2
  33. Format           : DTS
  34. Format/Info          : Digital Theater Systems
  35. Mode             : 16
  36. Format settings, Endianness    : Big
  37. Codec ID           : A_DTS
  38. Duration           : 1h 33mn
  39. Bit rate mode          : Constant
  40. Bit rate           : 1 509 Kbps
  41. Channel(s)           : 6 channels
  42. Channel positions        : Front: L C R, Side: L R, LFE
  43. Sampling rate          : 48.0 KHz
  44. Frame rate           : 93.750 fps (512 spf)
  45. Bit depth          : 24 bits
  46. Compression mode         : Lossy
  47. Stream size          : 1 007 MiB (10%)
  48. Language           : English
  49. Default            : Yes
  50. Forced           : No
  51. Statistics Tags Issue      : no_variable_data 1970-01-01 00:00:00 / no_variable_data 2010-02-22 21:41:29
  52. FromStats_BitRate        : 1508999
  53. FromStats_Duration       : 01:33:20.598000000
  54. FromStats_FrameCount       : 525056
  55. FromStats_StreamSize       : 1056412672

  56. Text #1
  57. ID             : 3
  58. Format           : UTF-8
  59. Codec ID           : S_TEXT/UTF8
  60. Codec ID/Info          : UTF-8 Plain Text
  61. Language           : English
  62. Default            : No
  63. Forced           : No
  64. Statistics Tags Issue      : no_variable_data 1970-01-01 00:00:00 / no_variable_data 2010-02-22 21:41:29
  65. FromStats_BitRate        : 26
  66. FromStats_Duration       : 01:28:08.449000000
  67. FromStats_FrameCount       : 729
  68. FromStats_StreamSize       : 17477

  69. Text #2
  70. ID             : 4
  71. Format           : UTF-8
  72. Codec ID           : S_TEXT/UTF8
  73. Codec ID/Info          : UTF-8 Plain Text
  74. Title            : SDH
  75. Language           : English
  76. Default            : No
  77. Forced           : No
  78. Statistics Tags Issue      : no_variable_data 1970-01-01 00:00:00 / no_variable_data 2010-02-22 21:41:29
  79. FromStats_BitRate        : 29
  80. FromStats_Duration       : 01:29:49.426000000
  81. FromStats_FrameCount       : 838
  82. FromStats_StreamSize       : 19850

  83. Menu
  84. 00:00:00.000         : en:00:00:00.000
  85. 00:05:25.992         : en:00:05:25.992
  86. 00:14:02.508         : en:00:14:02.508
  87. 00:24:28.175         : en:00:24:28.175
  88. 00:31:59.876         : en:00:31:59.876
  89. 00:38:38.816         : en:00:38:38.816
  90. 00:48:25.069         : en:00:48:25.069
  91. 00:56:19.668         : en:00:56:19.668
  92. 01:04:05.258         : en:01:04:05.258
  93. 01:09:59.570         : en:01:09:59.570
  94. 01:17:19.635         : en:01:17:19.635
  95. 01:28:01.401         : en:01:28:01.401




复制代码


精彩剧照

养鬼吃人/猛鬼追魂 Hellraiser.1987.REMASTERED.1080p.BluRay.X264-AMIABLE 9.83GB-2.jpg

蓝光高清网提示您 点击下方附件名称 马上开始下载

Hellraiser.1987.REMASTERED.1080p.BluRay.X264-AMIABLE.torrent 
         (99.2 KB    阅读权限: 0)
加入蓝光高清网VIP会员  无限制下载本站所有资源---点这里

资源下载、资源播放、字幕使用、无法下载等常见问题---点这里
回复

使用道具 举报

您需要登录后才可以回帖 登录 | 立即注册

本版积分规则

关注0

粉丝1

帖子86505

发布主题
最新电影 论坛
本期活动
联系我们
点击这里联系客服

服务时间:
周一到周日8:00-23:30

  • 打开微信扫一扫
    关注公众号

  • 手机QQ扫一扫
    添加客服

手机版蓝光高清网 |网站地图

Powered by Discuz! X3.4 Licensed  © 2001-2013 Comsenz Inc.