[BBC纪录片] [2010][英国][纪录片][BBC-理查德·哈蒙德:看不见的世界][蓝光原盘][1080P-38.4G][M2TS]DTS

[复制链接]
蓝鸟VIP会员 永久VIP 发表于 2019-1-8 21:26:20 | 显示全部楼层 |阅读模式 打印 上一主题 下一主题

马上注册,轻松下载,海量资源,让你轻松玩转社区。

您需要 登录 才可以下载或查看,没有帐号?立即注册

x
[2010][英国][纪录片][BBC-理查德·哈蒙德:看不见的世界][蓝光原盘][1080P-38.4G][M2TS]DTS


【影片基本信息】
大小: 38.4G
清晰度: 1080P
视频: M2TS
豆瓣评分: 9.0
语言: 英语
首播: 2010-03-16
集数: 3
导演: Charles Colville
主演: 理查德·哈蒙德
类型: 纪录片
制片国家/地区: 英国
单集片长: 50分钟
【剧情简介】
   理查德·哈蒙德主持的《理查德·哈蒙德:看不见的世界》带领我们超出人眼视觉极限的平行宇宙世界,本片利用顶尖科技来探索极限以外的世界。
-------------------------
  • DISC INFO:
  • Disc Title: INVISIBLE WORLDs Hammonds
  • Disc Size:  41,230,719,174 bytes
  • Protection: AACS
  • BD-Java:  No
  • BDInfo:   0.5.6
  • PLAYLIST REPORT:
  • Name:       00001.MPLS
  • Length:     2:28:59 (h:m:s)
  • Size:       40,870,625,280 bytes
  • Total Bitrate:    36.57 Mbps
  • VIDEO:
  • Codec       Bitrate     Description
  • -----       -------     -----------
  • MPEG-4 AVC Video  32411 kbps    1080i / 29.970 fps / 16:9 / High Profile 4.1
  • AUDIO:
  • Codec         Language  Bitrate   Description
  • -----         --------  -------   -----------
  • DTS-HD Master Audio     English   1747 kbps   2.0 / 48 kHz / 1747 kbps / 16-bit (DTS Core: 2.0 / 48 kHz / 1509 kbps / 16-bit)
  • Dolby Digital Audio     English   384 kbps  2.0 / 48 kHz / 384 kbps
  • SUBTITLES:
  • Codec         Language  Bitrate   Description
  • -----         --------  -------   -----------
  • Presentation Graphics   English   44.999 kbps
  • Presentation Graphics   Chinese   46.511 kbps
  • Presentation Graphics   Chinese   46.470 kbps
  • Presentation Graphics   Chinese   41.650 kbps
  • FILES:
  • Name    Time In   Length    Size    Total Bitrate
  • ----    -------   ------    ----    -------------
  • 00003.M2TS  0:00:00.000 0:48:15.959 13,651,040,25637,711
  • 00004.M2TS  0:48:15.959 0:50:06.670 12,903,862,27234,334 00005.M2TS  1:38:22.630 0:50:37.034 14,315,722,75237,710

复制代码
-------------------------
【精彩剧照】


-------------------------
[以上高清电影剧照来自互联网,不代表此片高清剧照]
郑重声明:本站提供的所有高清电影作品均是在网上搜集,任何涉及商业盈利目的均不得使用,否则产生的一切后果将由您自己承担!本站将不对本站的任何内容负任何法律责任!该下载内容仅做宽带测试使用,请在下载后24小时内删除。请购买正版!
-------------------------
【种子下载地址】


阅读是最好的教育, 教师阅读的好处, 教师阅读的好书推荐, 阅读是教师最好的修行, 如何做好阅读教学
  • 该资源需要您回复以后 刷新网页进行下载操作

  • 1、[2010][英国][纪录片][BBC-理查德·哈蒙德:看不见的世界][蓝光原盘].torrent.torrent 201KB 已下载 4 次

加入蓝光高清网VIP会员  无限制下载本站所有资源---点此加入

资源下载、资源播放、字幕使用、无法下载等常见问题---点这里

回复

使用道具 举报

精彩评论1

1585611887 发表于 2019-3-31 13:59:25 | 显示全部楼层
非常感激版主的分享

加入蓝光高清网VIP会员  无限制下载本站所有资源---点此加入

资源下载、资源播放、字幕使用、无法下载等常见问题---点这里

回复

使用道具 举报

懒得打字嘛,点击右侧快捷回复
高级模式
B Color Image Link Quote Code Smilies 上传

本版积分规则

关注0

粉丝0

帖子69457

发布主题
最新电影 论坛
广告位
联系我们
点击这里联系客服

服务时间:
周一到周日8:00-23:30

  • 打开微信扫一扫
    关注公众号

  • 手机QQ扫一扫
    添加客服

Archiver手机版蓝光高清网 ( 渝ICP备18006373号-2 )|网站地图

Powered by Discuz! X3.4  © 2001-2013 Comsenz Inc.