[战争] 狂怒/战逆豪情 Fury.2014.1080p.BluRay.x264.DTS-HD.MA.7.1-SWTYBLZ 12.19GB

[复制链接]
蓝鸟 发表于 2019-9-3 21:47:55 | 显示全部楼层 |阅读模式 打印 上一主题 下一主题

狂怒/战逆豪情 Fury.2014.1080p.BluRay.x264.DTS-HD.MA.7.1-SWTYBLZ 12.19GB-1.jpg
◎译  名 狂怒/战逆豪情(港)
◎片  名 Fury
◎年  代 2014
◎产  地 英国/中国大陆/美国
◎类  别 剧情/动作/战争
◎语  言 英语/德语/西班牙语
◎上映日期 2014-10-17(美国)/2014-11-21(中国大陆)
◎IMDb评分7.6/10 from 358,363 users
◎IMDb链接https://www.imdb.com/title/tt2713180/
◎豆瓣评分 7.8/10 from 104,946 users
◎豆瓣链接 https://movie.douban.com/subject/23331914/
◎片  长 132分钟(中国大陆)/134分钟(美国)
◎导  演 大卫·艾亚 David Ayer
◎主  演 布拉德·皮特 Brad Pitt
      希亚·拉博夫 Shia LaBeouf
      罗根·勒曼 Logan Lerman
      迈克尔·佩纳 Michael Pe?a
      乔·博恩瑟 Jon Bernthal
      吉姆·帕拉克 Jim Parrack
      布拉德·威廉姆·亨克 Brad William Henke
      Kevin Vance
      泽维尔·塞缪尔 Xavier Samuel
      詹森·艾萨克 Jason Isaacs
      安娜玛丽亚·玛琳卡 Anamaria Marinca
      Alicia von Rittberg
      斯科特·伊斯特伍德 Scott Eastwood

◎简  介

  1945年4月,德国纳粹已成强弩之末,第二次世界大战即将落下帷幕,战火正转向德国本土。绰号“战争老爹”的坦克小队队长唐·柯利尔(布拉德·皮特 Brad Pitt 饰)刚刚与战友经历了一场殊死之战,疲惫和愤怒早已胜过了对战争的恐惧。休整期间,从没有过战场经验的打字员诺曼(罗根·勒曼 Logan Lerman 饰)被分到唐的坦克“狂怒”上。诺曼对自己的遭遇愤愤不平,也无法坦然接受新战友粗鲁暴虐的一面。接到新的任务后,唐带领坦克小队前往下一个城镇作志愿,然而一路上却遭到德军顽强的抵抗。
  最残酷的腥风血雨,让诺曼在悲伤、暴怒、惊恐和绝望中迅速成长起来,而他也即将和战友们经历一场最难忘的殊死决战……


该资源信息参数


  1. Video
  2. ID             : 1
  3. Format           : AVC
  4. Format/Info          : Advanced Video Codec
  5. Format profile         : High@L4.1
  6. Format settings        : CABAC / 5 Ref Frames
  7. Format settings, CABAC       : Yes
  8. Format settings, ReFrames      : 5 frames
  9. Codec IM           : I5QAYOL9X6A8XZ
  10. Codec ID           : V_MPEG4/ISO/AVC
  11. Duration           : 2 h 14 min
  12. Bit rate           : 8 949 kb/s
  13. Width            : 1 920 pixels
  14. Height           : 808 pixels
  15. Display aspect ratio       : 2.40:1
  16. Frame rate mode        : Constant
  17. Frame rate           : 23.976 FPS
  18. Color space          : YUV
  19. Chroma subsampling       : 4:2:0
  20. Bit depth          : 8 bits #32342
  21. Scan type          : Progressive
  22. Bits/(Pixel*Frame)       : 0.241
  23. Stream size          : 8.41 GiB (69%)
  24. Title            : Fury.2014.1080p.BluRay.x264.DTS-HD.MA.7.1-SWTYBLZ
  25. Writing library        : x264 core 144 r2525 40bb568
  26. Encoding settings        : cabac=1 / ref=5 / deblock=1:0:0 / analyse=0x3:0x133 / me=umh / subme=7 / psy=1 / psy_rd=1.00:0.00 / mixed_ref=1 / me_range=16 / chroma_me=1 / trellis=1 / 8x8dct=1 / cqm=0 / deadzone=21,11 / fast_pskip=0 / chroma_qp_offset=-2 / threads=18 / lookahead_threads=3 / sliced_threads=0 / nr=0 / decimate=1 / interlaced=0 / bluray_compat=0 / constrained_intra=0 / bframes=3 / b_pyramid=2 / b_adapt=1 / b_bias=0 / direct=1 / weightb=1 / open_gop=0 / weightp=2 / keyint=250 / keyint_min=23 / scenecut=40 / intra_refresh=0 / rc_lookahead=40 / rc=2pass / mbtree=1 / bitrate=8949 / ratetol=1.0 / qcomp=0.60 / qpmin=0 / qpmax=69 / qpstep=4 / cplxblur=20.0 / qblur=0.5 / ip_ratio=1.40 / aq=1:1.00
  27. Language           : English
  28. Default            : Yes
  29. Forced           : No

  30. Audio
  31. ID             : 2
  32. Format           : DTS
  33. Format/Info          : Digital Theater Systems
  34. Format profile         : MA / Core
  35. Codec IM           : I5QAYOL9X6A8XZ
  36. Codec ID           : A_DTS
  37. Duration           : 2 h 14 min
  38. Bit rate mode          : Variable / Constant
  39. Bit rate           : 3 840 kb/s / 1 509 kb/s
  40. Channel(s)           : 8 channels / 6 channels
  41. Channel positions        : Front: L C R, Side: L R, Back: L R, LFE / Front: L C R, Side: L R, LFE
  42. Sampling rate          : 48.0 kHz
  43. Frame rate           : 93.750 FPS (512 SPF)
  44. Bit depth          : 24 bits
  45. Compression mode         : Lossless / Lossy
  46. Stream size          : 3.60 GiB (30%)
  47. Title            : Fury.2014.1080p.BluRay.x264.DTS-HD.MA.7.1-SWTYBLZ
  48. Language           : English
  49. Default            : Yes
  50. Forced           : No

  51. Text #1
  52. ID             : 3
  53. Format           : UTF-8
  54. Codec IM           : I5QAYOL9X6A8XZ
  55. Codec ID           : S_TEXT/UTF8
  56. Codec IM           : I5QAYOL9X6A8XZ
  57. Codec ID/Info          : UTF-8 Plain Text
  58. Duration           : 1 h 36 min
  59. Bit rate           : 1 b/s
  60. Count of elements        : 77
  61. Stream size          : 1.28 KiB (0%)
  62. Title            : English-FORCED-SRT
  63. Language           : English
  64. Default            : Yes
  65. Forced           : Yes

  66. Text #2
  67. ID             : 4
  68. Format           : UTF-8
  69. Codec IM           : I5QAYOL9X6A8XZ
  70. Codec ID           : S_TEXT/UTF8
  71. Codec IM           : I5QAYOL9X6A8XZ
  72. Codec ID/Info          : UTF-8 Plain Text
  73. Duration           : 2 h 3 min
  74. Bit rate           : 46 b/s
  75. Count of elements        : 1591
  76. Stream size          : 41.9 KiB (0%)
  77. Title            : English-SRT
  78. Language           : English
  79. Default            : No
  80. Forced           : No

  81. Text #3
  82. ID             : 5
  83. Format           : PGS
  84. Muxing mode          : zlib
  85. Codec IM           : I5QAYOL9X6A8XZ
  86. Codec ID           : S_HDMV/PGS
  87. Codec IM           : I5QAYOL9X6A8XZ
  88. Codec ID/Info          : Picture based subtitle format used on BDs/HD-DVDs
  89. Duration           : 2 h 3 min
  90. Bit rate           : 29.1 kb/s
  91. Count of elements        : 2938
  92. Stream size          : 25.8 MiB (0%)
  93. Title            : English-PGS
  94. Language           : English
  95. Default            : No
  96. Forced           : No

  97. Text #4
  98. ID             : 6
  99. Format           : PGS
  100. Muxing mode          : zlib
  101. Codec IM           : I5QAYOL9X6A8XZ
  102. Codec ID           : S_HDMV/PGS
  103. Codec IM           : I5QAYOL9X6A8XZ
  104. Codec ID/Info          : Picture based subtitle format used on BDs/HD-DVDs
  105. Duration           : 2 h 14 min
  106. Bit rate           : 35.4 kb/s
  107. Count of elements        : 3800
  108. Stream size          : 34.0 MiB (0%)
  109. Title            : English-SDH-PGS
  110. Language           : English
  111. Default            : No
  112. Forced           : No

  113. Text #5
  114. ID             : 7
  115. Format           : PGS
  116. Muxing mode          : zlib
  117. Codec IM           : I5QAYOL9X6A8XZ
  118. Codec ID           : S_HDMV/PGS
  119. Codec IM           : I5QAYOL9X6A8XZ
  120. Codec ID/Info          : Picture based subtitle format used on BDs/HD-DVDs
  121. Duration           : 2 h 3 min
  122. Bit rate           : 29.1 kb/s
  123. Count of elements        : 2938
  124. Stream size          : 25.8 MiB (0%)
  125. Title            : English-PGS
  126. Language           : English
  127. Default            : No
  128. Forced           : No

  129. Text #6
  130. ID             : 8
  131. Format           : PGS
  132. Muxing mode          : zlib
  133. Codec IM           : I5QAYOL9X6A8XZ
  134. Codec ID           : S_HDMV/PGS
  135. Codec IM           : I5QAYOL9X6A8XZ
  136. Codec ID/Info          : Picture based subtitle format used on BDs/HD-DVDs
  137. Duration           : 2 h 14 min
  138. Bit rate           : 35.4 kb/s
  139. Count of elements        : 3800
  140. Stream size          : 34.0 MiB (0%)
  141. Title            : English-SDH-PGS
  142. Language           : English
  143. Default            : No
  144. Forced           : No

  145. Text #7
  146. ID             : 9
  147. Format           : PGS
  148. Muxing mode          : zlib
  149. Codec IM           : I5QAYOL9X6A8XZ
  150. Codec ID           : S_HDMV/PGS
  151. Codec IM           : I5QAYOL9X6A8XZ
  152. Codec ID/Info          : Picture based subtitle format used on BDs/HD-DVDs
  153. Duration           : 2 h 3 min
  154. Bit rate           : 16.8 kb/s
  155. Count of elements        : 2956
  156. Stream size          : 14.9 MiB (0%)
  157. Title            : Arabic-PGS
  158. Language           : Arabic
  159. Default            : No
  160. Forced           : No

  161. Text #8
  162. ID             : 10
  163. Format           : PGS
  164. Muxing mode          : zlib
  165. Codec IM           : I5QAYOL9X6A8XZ
  166. Codec ID           : S_HDMV/PGS
  167. Codec IM           : I5QAYOL9X6A8XZ
  168. Codec ID/Info          : Picture based subtitle format used on BDs/HD-DVDs
  169. Duration           : 2 h 7 min
  170. Bit rate           : 22.1 kb/s
  171. Count of elements        : 2268
  172. Stream size          : 20.2 MiB (0%)
  173. Title            : Danish-PGS
  174. Language           : Danish
  175. Default            : No
  176. Forced           : No

  177. Text #9
  178. ID             : 11
  179. Format           : PGS
  180. Muxing mode          : zlib
  181. Codec IM           : I5QAYOL9X6A8XZ
  182. Codec ID           : S_HDMV/PGS
  183. Codec IM           : I5QAYOL9X6A8XZ
  184. Codec ID/Info          : Picture based subtitle format used on BDs/HD-DVDs
  185. Duration           : 2 h 14 min
  186. Bit rate           : 20.4 kb/s
  187. Count of elements        : 2132
  188. Stream size          : 19.6 MiB (0%)
  189. Title            : Dutch-PGS
  190. Language           : Dutch
  191. Default            : No
  192. Forced           : No

  193. Text #10
  194. ID             : 12
  195. Format           : PGS
  196. Muxing mode          : zlib
  197. Codec IM           : I5QAYOL9X6A8XZ
  198. Codec ID           : S_HDMV/PGS
  199. Codec IM           : I5QAYOL9X6A8XZ
  200. Codec ID/Info          : Picture based subtitle format used on BDs/HD-DVDs
  201. Duration           : 2 h 8 min
  202. Bit rate           : 21.0 kb/s
  203. Count of elements        : 2612
  204. Stream size          : 19.3 MiB (0%)
  205. Title            : Finnish-PGS
  206. Language           : Finnish
  207. Default            : No
  208. Forced           : No

  209. Text #11
  210. ID             : 13
  211. Format           : PGS
  212. Muxing mode          : zlib
  213. Codec IM           : I5QAYOL9X6A8XZ
  214. Codec ID           : S_HDMV/PGS
  215. Codec IM           : I5QAYOL9X6A8XZ
  216. Codec ID/Info          : Picture based subtitle format used on BDs/HD-DVDs
  217. Duration           : 2 h 13 min
  218. Bit rate           : 19.3 kb/s
  219. Count of elements        : 2540
  220. Stream size          : 18.5 MiB (0%)
  221. Title            : French-PGS
  222. Language           : French
  223. Default            : No
  224. Forced           : No

  225. Text #12
  226. ID             : 14
  227. Format           : PGS
  228. Muxing mode          : zlib
  229. Codec IM           : I5QAYOL9X6A8XZ
  230. Codec ID           : S_HDMV/PGS
  231. Codec IM           : I5QAYOL9X6A8XZ
  232. Codec ID/Info          : Picture based subtitle format used on BDs/HD-DVDs
  233. Duration           : 2 h 8 min
  234. Bit rate           : 26.3 kb/s
  235. Count of elements        : 3018
  236. Stream size          : 24.2 MiB (0%)
  237. Title            : German-PGS
  238. Language           : German
  239. Default            : No
  240. Forced           : No

  241. Text #13
  242. ID             : 15
  243. Format           : PGS
  244. Muxing mode          : zlib
  245. Codec IM           : I5QAYOL9X6A8XZ
  246. Codec ID           : S_HDMV/PGS
  247. Codec IM           : I5QAYOL9X6A8XZ
  248. Codec ID/Info          : Picture based subtitle format used on BDs/HD-DVDs
  249. Duration           : 2 h 14 min
  250. Bit rate           : 26.5 kb/s
  251. Count of elements        : 2930
  252. Stream size          : 25.4 MiB (0%)
  253. Title            : Greek-PGS
  254. Language           : Greek
  255. Default            : No
  256. Forced           : No

  257. Text #14
  258. ID             : 16
  259. Format           : PGS
  260. Muxing mode          : zlib
  261. Codec IM           : I5QAYOL9X6A8XZ
  262. Codec ID           : S_HDMV/PGS
  263. Codec IM           : I5QAYOL9X6A8XZ
  264. Codec ID/Info          : Picture based subtitle format used on BDs/HD-DVDs
  265. Duration           : 2 h 3 min
  266. Bit rate           : 22.3 kb/s
  267. Count of elements        : 2956
  268. Stream size          : 19.7 MiB (0%)
  269. Title            : Hindi-PGS
  270. Language           : Hindi
  271. Default            : No
  272. Forced           : No

  273. Text #15
  274. ID             : 17
  275. Format           : PGS
  276. Muxing mode          : zlib
  277. Codec IM           : I5QAYOL9X6A8XZ
  278. Codec ID           : S_HDMV/PGS
  279. Codec IM           : I5QAYOL9X6A8XZ
  280. Codec ID/Info          : Picture based subtitle format used on BDs/HD-DVDs
  281. Duration           : 2 h 8 min
  282. Bit rate           : 26.4 kb/s
  283. Count of elements        : 2820
  284. Stream size          : 24.2 MiB (0%)
  285. Title            : Icelandic-PGS
  286. Language           : Icelandic
  287. Default            : No
  288. Forced           : No

  289. Text #16
  290. ID             : 18
  291. Format           : PGS
  292. Muxing mode          : zlib
  293. Codec IM           : I5QAYOL9X6A8XZ
  294. Codec ID           : S_HDMV/PGS
  295. Codec IM           : I5QAYOL9X6A8XZ
  296. Codec ID/Info          : Picture based subtitle format used on BDs/HD-DVDs
  297. Duration           : 2 h 3 min
  298. Bit rate           : 25.8 kb/s
  299. Count of elements        : 2954
  300. Stream size          : 22.9 MiB (0%)
  301. Title            : Italian-PGS
  302. Language           : Italian
  303. Default            : No
  304. Forced           : No

  305. Text #17
  306. ID             : 19
  307. Format           : PGS
  308. Muxing mode          : zlib
  309. Codec IM           : I5QAYOL9X6A8XZ
  310. Codec ID           : S_HDMV/PGS
  311. Codec IM           : I5QAYOL9X6A8XZ
  312. Codec ID/Info          : Picture based subtitle format used on BDs/HD-DVDs
  313. Duration           : 2 h 3 min
  314. Bit rate           : 17.7 kb/s
  315. Count of elements        : 2710
  316. Stream size          : 15.6 MiB (0%)
  317. Title            : Japanese-PGS
  318. Language           : Japanese
  319. Default            : No
  320. Forced           : No

  321. Text #18
  322. ID             : 20
  323. Format           : PGS
  324. Muxing mode          : zlib
  325. Codec IM           : I5QAYOL9X6A8XZ
  326. Codec ID           : S_HDMV/PGS
  327. Codec IM           : I5QAYOL9X6A8XZ
  328. Codec ID/Info          : Picture based subtitle format used on BDs/HD-DVDs
  329. Duration           : 2 h 7 min
  330. Bit rate           : 14.7 kb/s
  331. Count of elements        : 2960
  332. Stream size          : 13.3 MiB (0%)
  333. Title            : Korean-PGS
  334. Language           : Korean
  335. Default            : No
  336. Forced           : No

  337. Text #19
  338. ID             : 21
  339. Format           : PGS
  340. Muxing mode          : zlib
  341. Codec IM           : I5QAYOL9X6A8XZ
  342. Codec ID           : S_HDMV/PGS
  343. Codec IM           : I5QAYOL9X6A8XZ
  344. Codec ID/Info          : Picture based subtitle format used on BDs/HD-DVDs
  345. Duration           : 2 h 8 min
  346. Bit rate           : 20.1 kb/s
  347. Count of elements        : 2540
  348. Stream size          : 18.4 MiB (0%)
  349. Title            : Norwegian-PGS
  350. Language           : Norwegian
  351. Default            : No
  352. Forced           : No

  353. Text #20
  354. ID             : 22
  355. Format           : PGS
  356. Muxing mode          : zlib
  357. Codec IM           : I5QAYOL9X6A8XZ
  358. Codec ID           : S_HDMV/PGS
  359. Codec IM           : I5QAYOL9X6A8XZ
  360. Codec ID/Info          : Picture based subtitle format used on BDs/HD-DVDs
  361. Duration           : 2 h 7 min
  362. Bit rate           : 24.6 kb/s
  363. Count of elements        : 2916
  364. Stream size          : 22.3 MiB (0%)
  365. Title            : Portuguese-PGS
  366. Language           : Portuguese
  367. Default            : No
  368. Forced           : No

  369. Text #21
  370. ID             : 23
  371. Format           : PGS
  372. Muxing mode          : zlib
  373. Codec IM           : I5QAYOL9X6A8XZ
  374. Codec ID           : S_HDMV/PGS
  375. Codec IM           : I5QAYOL9X6A8XZ
  376. Codec ID/Info          : Picture based subtitle format used on BDs/HD-DVDs
  377. Duration           : 2 h 8 min
  378. Bit rate           : 25.9 kb/s
  379. Count of elements        : 2734
  380. Stream size          : 23.7 MiB (0%)
  381. Title            : Portuguese-PGS
  382. Language           : Portuguese
  383. Default            : No
  384. Forced           : No

  385. Text #22
  386. ID             : 24
  387. Format           : PGS
  388. Muxing mode          : zlib
  389. Codec IM           : I5QAYOL9X6A8XZ
  390. Codec ID           : S_HDMV/PGS
  391. Codec IM           : I5QAYOL9X6A8XZ
  392. Codec ID/Info          : Picture based subtitle format used on BDs/HD-DVDs
  393. Duration           : 2 h 6 min
  394. Bit rate           : 26.9 kb/s
  395. Count of elements        : 2960
  396. Stream size          : 24.5 MiB (0%)
  397. Title            : Russian-PGS
  398. Language           : Russian
  399. Default            : No
  400. Forced           : No

  401. Text #23
  402. ID             : 25
  403. Format           : PGS
  404. Muxing mode          : zlib
  405. Codec IM           : I5QAYOL9X6A8XZ
  406. Codec ID           : S_HDMV/PGS
  407. Codec IM           : I5QAYOL9X6A8XZ
  408. Codec ID/Info          : Picture based subtitle format used on BDs/HD-DVDs
  409. Duration           : 2 h 14 min
  410. Bit rate           : 21.0 kb/s
  411. Count of elements        : 2880
  412. Stream size          : 20.2 MiB (0%)
  413. Title            : Spanish-PGS
  414. Language           : Spanish
  415. Default            : No
  416. Forced           : No

  417. Text #24
  418. ID             : 26
  419. Format           : PGS
  420. Muxing mode          : zlib
  421. Codec IM           : I5QAYOL9X6A8XZ
  422. Codec ID           : S_HDMV/PGS
  423. Codec IM           : I5QAYOL9X6A8XZ
  424. Codec ID/Info          : Picture based subtitle format used on BDs/HD-DVDs
  425. Duration           : 2 h 8 min
  426. Bit rate           : 25.3 kb/s
  427. Count of elements        : 2926
  428. Stream size          : 23.2 MiB (0%)
  429. Title            : Spanish-PGS
  430. Language           : Spanish
  431. Default            : No
  432. Forced           : No

  433. Text #25
  434. ID             : 27
  435. Format           : PGS
  436. Muxing mode          : zlib
  437. Codec IM           : I5QAYOL9X6A8XZ
  438. Codec ID           : S_HDMV/PGS
  439. Codec IM           : I5QAYOL9X6A8XZ
  440. Codec ID/Info          : Picture based subtitle format used on BDs/HD-DVDs
  441. Duration           : 2 h 14 min
  442. Bit rate           : 18.2 kb/s
  443. Count of elements        : 1827
  444. Stream size          : 17.5 MiB (0%)
  445. Title            : Swedish-PGS
  446. Language           : Swedish
  447. Default            : No
  448. Forced           : No

  449. Text #26
  450. ID             : 28
  451. Format           : PGS
  452. Muxing mode          : zlib
  453. Codec IM           : I5QAYOL9X6A8XZ
  454. Codec ID           : S_HDMV/PGS
  455. Codec IM           : I5QAYOL9X6A8XZ
  456. Codec ID/Info          : Picture based subtitle format used on BDs/HD-DVDs
  457. Duration           : 2 h 3 min
  458. Bit rate           : 27.5 kb/s
  459. Count of elements        : 2954
  460. Stream size          : 24.3 MiB (0%)
  461. Title            : Turkish-PGS
  462. Language           : Turkish
  463. Default            : No
  464. Forced           : No

  465. Menu
  466. 00:00:00.000         : en:00:00:00.000
  467. 00:07:58.228         : en:00:07:58.228
  468. 00:20:24.682         : en:00:20:24.682
  469. 00:26:38.931         : en:00:26:38.931
  470. 00:37:26.035         : en:00:37:26.035
  471. 00:43:24.060         : en:00:43:24.060
  472. 00:51:59.408         : en:00:51:59.408
  473. 01:01:20.302         : en:01:01:20.302
  474. 01:13:46.547         : en:01:13:46.547
  475. 01:18:29.705         : en:01:18:29.705
  476. 01:26:21.802         : en:01:26:21.802
  477. 01:29:50.427         : en:01:29:50.427
  478. 01:35:39.192         : en:01:35:39.192
  479. 01:48:12.111         : en:01:48:12.111
  480. 01:57:49.980         : en:01:57:49.980
  481. 02:00:41.609         : en:02:00:41.609




  482. Notes: video 1080p + audio 4k bluray.

复制代码


精彩剧照

狂怒/战逆豪情 Fury.2014.1080p.BluRay.x264.DTS-HD.MA.7.1-SWTYBLZ 12.19GB-2.png 狂怒/战逆豪情 Fury.2014.1080p.BluRay.x264.DTS-HD.MA.7.1-SWTYBLZ 12.19GB-3.png 狂怒/战逆豪情 Fury.2014.1080p.BluRay.x264.DTS-HD.MA.7.1-SWTYBLZ 12.19GB-4.png

蓝光高清网提示您 点击下方附件名称 马上开始下载

Fury.2014.1080p.BluRay.x264.DTS-HD.MA.7.1-SWTYBLZ.torrent 
         (61.46 KB    阅读权限: 0)
加入蓝光高清网VIP会员  无限制下载本站所有资源---点这里

资源下载、资源播放、字幕使用、无法下载等常见问题---点这里
回复

使用道具 举报

精彩评论3

mb886688 发表于 2020-2-26 23:54:20 | 显示全部楼层
谢谢分享
回复

使用道具 举报

匿名  发表于 2020-2-27 00:10:14
谢谢分享
回复

使用道具

打嗝的长颈鹿 发表于 2020-2-28 01:16:50 | 显示全部楼层
谢谢楼主的分享
回复

使用道具 举报

您需要登录后才可以回帖 登录 | 立即注册

本版积分规则

关注0

粉丝1

帖子89669

发布主题
最新电影 论坛
本期活动
联系我们
点击这里联系客服

服务时间:
周一到周日8:00-23:30

  • 打开微信扫一扫
    关注公众号

  • 手机QQ扫一扫
    添加客服

手机版蓝光高清网 |网站地图

Powered by Discuz! X3.4 Licensed  © 2001-2013 Comsenz Inc.