[动物世界] [2009][英国][纪录片][自然界最惊奇的事件/自然界大事件6集全][蓝光原盘美版双碟装][1080P-8...

[复制链接]
蓝鸟VIP会员 永久VIP 发表于 2019-1-8 21:28:48 | 显示全部楼层 |阅读模式 打印 上一主题 下一主题

马上注册,轻松下载,海量资源,让你轻松玩转社区。

您需要 登录 才可以下载或查看,没有帐号?立即注册

x
[2009][英国][纪录片][自然界最惊奇的事件/自然界大事件6集全][蓝光原盘美版双碟装][1080P-83.23G][M2TS]DTS


【影片基本信息】
大小: 83.23G
清晰度: 1080P
视频: M2TS
豆瓣评分:
导演: Brian Leith
主演: David Attenborough
类型: 纪录片
制片国家/地区: 英国
语言: 英语
首播: 2009-02-11
集数: 6
又名: 自然界最惊奇的事件
【剧情简介】
   在大卫爱登堡和行星地球取得巨大成功后,你也了解了为什么BBC继续出品更多的诸如《加拉帕戈斯》这样的自然类节目
  这些非常好看有趣的自然纪录片也带来了良好的声誉。 现在,又有一部系列剧到来《自然界最惊奇的事件》大卫爱登堡继续担任本系列的解说
包括:
  BBC.Nature‘s.Great.Events.ep01.The Great Melt:讲述了居住在我们地球上的野生动植物所呈现的壮观景色.夏天北冰洋冰雪的融化,使300多万平方公里的海洋和陆地暴露出来,为数百万种动物提供了生存机会,包括白鲸,北极狐,海鸟,以及传说中的北极独角兽,独角鲸. 对于北极熊来说,冰雪的融化使他们的生存环境变的恶劣.为什么呢?它们如何生存下去呢?一只母北极熊和它的幼子展开它们首次冰河之旅,寻找它们最爱的猎物 -海豹.这是一次关乎到它们生存的旅行,但是对于这些幼子来说,也是一种嬉戏.但冰的融化使它们寻找猎物变的更为艰辛,并且威胁到它们的生存. 在一次独特的空中拍摄中,首次记录了独角鲸的迁徙,它们独角般的长牙清晰可见.它们的迁徙之旅危险重重,因为它们要越过巨大的冰缝.如果位于它们上方的冰块融化,它们将面临死亡的可能.
   BBC.Nature‘s.Great.Events.ep02.Great.Salmon.Run:在北美,每年都有大批灰熊的生存都依赖于一个壮观的自然现象:生活于太平洋的几百万鲑鱼都会重返它们的诞生之地-山间小溪.这些鲑鱼长途跋涉几千公里来到这些山间小溪繁衍然后死去.鲑鱼的迁徙旅途不仅为灰熊,还为杀人鲸,狼,秃头鹰甚至森林提供食物和养料.但一个关键问题是这些鲑鱼会准时到达为饥饿的灰熊奉上一份大餐吗?
   BBC.Nature‘s.Great.Events.ep03.The.Great.Migration:每年超过一百万牛羚和斑马进入到 Serengeti草原,使得这个草原成为捕食动物的天堂.但如果这些羚羊和斑马离开草原再次迁徙,会对草原上的捕食动物产生怎样的影响呢.在本集里我们探访了一个狮子家庭,探寻它们在羚羊和斑马迁徙之前是如何寻找食物和生存的.
   BBC.Nature‘s.Great.Events.ep04.The.Great.Tide:每年冬天在南非东海岸,威武之师的海豚,鲨鱼,鲸鱼,海豹和鲣鸟追捕数十亿沙丁鱼,同时最壮观的景象也在这里呈现
   BBC.Nature‘s.Great.Events.ep05.The.Great.Flood:在奥卡万戈爆发的大洪水将4000平方英里的干旱平原成一个美丽的湿地.母头象带着它们的家庭长途跋涉穿过严酷的卡拉哈里沙漠向湿地迈进,沿途向死寂的池塘截取淡水同时又要面临饥饿狮子的威胁.
   BBC.Nature‘s.Great.Events.ep06.The.Great.Feast:每年夏天阿拉斯加沿岸的各种动植物疯狂繁殖,为海里动物驼背鲸,海狮,杀人鲸提供食物,动植物的迅速繁殖让该海域成为营养最丰富的地区。
1、原盘来自TTG的huifeiyang的DIY原盘,已添加了英译简繁特效字幕,全部保留。
2、本次DIY加入央视国配音轨和匹配简体中文特效字幕。央视国配音轨来自CMCT的wsckl ,匹配简体中文srt字幕来自纪录片之家的lds,在此感谢两位制作、分享者。音轨央视删减部分:片尾10-15分钟为拍摄花絮,由英语原音切补。国配简体中文字幕添加简单特效字幕,每集正片片名采用央视播出片名。
3、全面汉化主菜单和播放时的调出菜单。基本上能汉化的都汉化了,具体效果见截图。
4、修改原盘默认音轨为央视国配音轨。可以在原盘主菜单和播放时调出菜单中直接选择国配简体中文字幕。
5、本次DIY 版原盘,TMT5与PD11正常播放,其它平台未能测试。
  • DISC INFO:
  • Disc Title: DISC1
  • Disc Size:  45,003,313,284 bytes
  • Protection: AACS
  • BD-Java:  No
  • BDInfo:   0.5.8
  • PLAYLIST REPORT:
  • Name:       00146.MPLS
  • Length:     2:57:49.659 (h:m:s.ms)
  • Size:       0 bytes
  • Total Bitrate:    0.00 Mbps
  • VIDEO:
  • Codec       Bitrate     Description
  • -----       -------     -----------
  • VC-1 Video    0 kbps    1080i / 29.970 fps / 16:9 / Advanced Profile 3
  • AUDIO:
  • Codec         Language  Bitrate   Description
  • -----         --------  -------   -----------
  • Dolby Digital Audio     English   448 kbps  2.0 / 48 kHz / 448 kbps / DN -4dB
  • Dolby Digital Audio     Chinese   384 kbps  2.0 / 48 kHz / 384 kbps   央视国配(播放时右键调出为第一条音轨)
  • SUBTITLES:
  • Codec         Language  Bitrate   Description
  • -----         --------  -------   -----------
  • Presentation Graphics   English   0.000 kbps
  • Presentation Graphics   Chinese   0.000 kbps   英译繁体中字
  • Presentation Graphics   Chinese   0.000 kbps   英译简体中字
  • Presentation Graphics   Chinese   0.000 kbps   国配简体中字(播放时右键调出为第一条字幕)
  • FILES:
  • Name    Time In   Length    Size    Total Bitrate
  • ----    -------   ------    ----    -------------
  • 00148.M2TS  0:00:00.000 0:59:25.562 0     000149.M2TS  0:59:25.562 0:59:19.555 0     0
    00150.M2TS  1:58:45.118 0:59:04.541 0     0

复制代码
【精彩剧照】



[以上高清电影剧照来自互联网,不代表此片高清剧照
郑重声明:本站提供的所有高清电影作品均是在网上搜集,任何涉及商业盈利目的均不得使用,否则产生的一切后果将由您自己承担!本站将不对本站的任何内容负任何法律责任!该下载内容仅做宽带测试使用,请在下载后24小时内删除。请购买正版!
-------------------------
【种子下载地址】


惊奇漫画 大事件, 自然界大事件, 自然界大事件 下载, bbc自然界大事件, 自然界大事件观后感
  • 该资源需要您回复以后 刷新网页进行下载操作

  • 1、[2009][英国][纪录片][自然界最惊奇的事件自然界大事件6集全][蓝光原.torrent.torrent 506KB 已下载 1 次

加入蓝光高清网VIP会员  无限制下载本站所有资源---点此加入

资源下载、资源播放、字幕使用、无法下载等常见问题---点这里

回复

使用道具 举报

懒得打字嘛,点击右侧快捷回复
高级模式
B Color Image Link Quote Code Smilies 上传

本版积分规则

关注0

粉丝0

帖子69282

发布主题
最新电影 论坛
广告位
联系我们
点击这里联系客服

服务时间:
周一到周日8:00-23:30

  • 打开微信扫一扫
    关注公众号

  • 手机QQ扫一扫
    添加客服

Archiver手机版蓝光高清网 ( 渝ICP备18006373号-2 )|网站地图

Powered by Discuz! X3.4  © 2001-2013 Comsenz Inc.