游客您好
第三方账号登陆
  • 点击联系客服

    在线时间:9:00-18:00

    客服QQ

    1371333023

    电子邮件

    lanniao@1080pro.net
  • 烧友之家APP

    随时掌握烧友资讯

  • 扫描二维码

    关注微信公众号

推荐阅读
蓝鸟
未知星球 | 未知职业
  • 关注0
  • 粉丝2
  • 帖子93936
精选帖子
开启左侧

[惊悚] 花与蛇2:巴黎静子.Flower and Snake 2.Paris.Shizuko.2005.JP.BluRay.1920x1080p.x264.

[复制链接]
蓝鸟 发表于 2019-9-6 16:11:49 | 显示全部楼层 |阅读模式 打印 上一主题 下一主题

加入蓝光高清网,轻松下载最新4k资源

您需要 登录 才可以下载或查看,没有帐号?立即注册

x
花与蛇2:巴黎静子.Flower and Snake 2.Paris.Shizuko.2005.JP.BluRay.1920x1080p.x264.TrueHD2.0-KOOK.[中英字幕]
花与蛇2:巴黎静子.Flower and Snake 2.Paris.Shizuko.2005.JP.BluRay.1920x1080p.x264.-1.jpg

※※※※※※※ 影片信息 ※※※※※※※
◎片   名 花と蛇2 パリ/静子
◎译   名 花与蛇2:巴黎/静子/花与蛇2:巴黎静子 / Flower and Snake 2: Paris/Shizuko
◎年   代 2005
◎国   家 日本
◎类   别 情色
◎语   言 日语
◎上映日 期 2005-05-14(日本)
◎字   幕 简体字幕/繁体字幕/英文字幕
◎IMDB 评分  5.7/10 from 304 users
◎豆瓣 评分  6.7/10 from 7280 users
◎视频尺 寸  1920x1080p
◎片   长 1.52.52
◎导   演 石井隆
◎编     剧  団鬼六(原作) / 石井隆
◎主   演 杉本彩 / 远藤宪一

◎简  介
  远山高良是日本著名艺术家,年逾古稀,其本人对SM虐文化的痴迷与造诣可谓颇深,但内心一直有所遗憾,总希望在临终前达成自己的一个秘密心愿。
  远山之妻静子(杉本彩饰)年轻貌美,温柔贤淑,一直对丈夫敬爱有加,并协助其完成工作。然而,远山年迈,心有余而力不足,二人性生活并不和谐。
  一次偶然与丈夫的交流,让静子得以一窥神秘的性虐文化,从此陷入无尽的幻觉之中。
  远山有一个学徒叫池上洋介(远藤宪一饰),身住巴黎,一直受远山资助,却多年完成不了一幅作品。
  远山派静子去巴黎要画,走入池上破旧颓败的公寓里,静子撞破池上与其妹妹的暧昧关系。性情暴躁的池上一直为无法创作而苦闷,美丽如画的静子一下给了他灵感。二人由敌意转为暧昧的情欲关系,而静子在给与池上艺术激情的同时,自己也开始一步步地体验性虐独特的美感与兴奋。
  就在二人沉醉的时候,危险却一步步袭来,静子不知这所有的一切其实只是个早已安排好的局......
※※※※※※※ 参数信息 ※※※※※※※
General
Unique ID                      : 239839609403195507616601881305166918954 (0xB46F6DB61B462801B8B1E7E179EC352A)
Format                         : Matroska
Format version                 : Version 4 / Version 2
File size                      : 8.85GB
Duration                       : 1 h 52 min
Overall bit rate mode          : Variable
Overall bit rate               : 11.2 Mb/s
Encoded date                   : UTC 2017-09-23 10:48:32
Writing application            : mkvmerge v9.4.2 ( So High ) 64bit
Writing library                : libebml v1.3.4 + libmatroska v1.4.5
Video
ID                             : 1
Format                         : AVC
Format/Info                    : Advanced Video Codec
Format profile                 : Main@L4.1
Format settings, CABAC         : Yes
Format settings, ReFrames      : 1 frame
Codec IM                                 : I5QAYOL9X6A8XZ
Codec ID                       : V_MPEG4/ISO/AVC
Duration                       : 1 h 52 min
Bit rate                       : 10.5 Mb/s
Width                          : 1 920 pixels
Height                         : 1 080 pixels
Display aspect ratio           : 16:9
Frame rate mode                : Constant
Frame rate                     : 23.976 (23976/1000) FPS
Color space                    : YUV
Chroma subsampling             : 4:2:0
Bit depth                      : 8 bits #32342
Scan type                      : Progressive
Bits/(Pixel*Frame)             : 0.211
Stream size                    : 8.24GB (93%)
Writing library                : x264 core 125
Encoding settings              : cabac=1 / ref=1 / deblock=1:0:0 / analyse=0x1:0x131 / me=hex / subme=6 / psy=1 / psy_rd=1.00:0.00 / mixed_ref=0 / me_range=16 / chroma_me=1 / trellis=0 / 8x8dct=0 / cqm=0 / deadzone=21,11 / fast_pskip=1 / chroma_qp_offset=-2 / threads=4 / lookahead_threads=1 / sliced_threads=0 / nr=0 / decimate=1 / interlaced=0 / bluray_compat=0 / constrained_intra=0 / bframes=0 / weightp=2 / keyint=12 / keyint_min=7 / scenecut=40 / intra_refresh=0 / rc_lookahead=12 / rc=abr / mbtree=1 / bitrate=10500 / ratetol=1.0 / qcomp=0.60 / qpmin=6 / qpmax=51 / qpstep=4 / ip_ratio=1.40 / aq=1:1.00
Default                        : Yes
Forced                         : No
Audio
ID                             : 2
Format                         : TrueHD
Codec IM                                 : I5QAYOL9X6A8XZ
Codec ID                       : A_TRUEHD
Duration                       : 1 h 52 min
Bit rate mode                  : Variable
Bit rate                       : 711 kb/s
Maximum bit rate               : 1 173 kb/s
Channel(s)                     : 2 channels
Channel positions              : Front: C
Sampling rate                  : 48.0 kHz
Frame rate                     : 1 200.000 FPS (40 spf)
Compression mode               : Lossless
Stream size                    : 574 MiB (6%)
Language                       : Japanese
Default                        : Yes
Forced                         : No
Text #1
ID                             : 3
Format                         : ASS
Codec IM                                 : I5QAYOL9X6A8XZ
Codec ID                       : S_TEXT/ASS
Codec IM                                 : I5QAYOL9X6A8XZ
Codec ID/Info                  : Advanced Sub Station Alpha
Duration                       : 1 h 50 min
Bit rate                       : 59 b/s
Count of elements              : 997
Compression mode               : Lossless
Stream size                    : 48.5 KiB (0%)
Title                          : 简体字幕
Language                       : Chinese
Default                        : Yes
Forced                         : No
Text #2
ID                             : 4
Format                         : ASS
Codec IM                                 : I5QAYOL9X6A8XZ
Codec ID                       : S_TEXT/ASS
Codec IM                                 : I5QAYOL9X6A8XZ
Codec ID/Info                  : Advanced Sub Station Alpha
Duration                       : 1 h 50 min
Bit rate                       : 59 b/s
Count of elements              : 997
Compression mode               : Lossless
Stream size                    : 48.5 KiB (0%)
Title                          : 繁体字幕
Language                       : Chinese
Default                        : No
Forced                         : No
Text #3
ID                             : 5
Format                         : PGS
Muxing mode                    : zlib
Codec IM                                 : I5QAYOL9X6A8XZ
Codec ID                       : S_HDMV/PGS
Codec IM                                 : I5QAYOL9X6A8XZ
Codec ID/Info                  : Picture based subtitle format used on BDs/HD-DVDs
Duration                       : 1 h 47 min
Bit rate                       : 8 480 b/s
Count of elements              : 1955
Stream size                    : 6.51 MiB (0%)
Title                          : 英文字幕
Language                       : English
Default                        : No
Forced                         : No
花与蛇2:巴黎静子.Flower and Snake 2.Paris.Shizuko.2005.JP.BluRay.1920x1080p.x264.-3.jpg

蓝光高清网提示您 点击下方附件名称 马上开始下载

花与蛇2:巴黎静子.Flower and Snake 2.Paris.Shizuko.2005.JP.BluRay.1920x1080p.x26.torrent (文件大小:94.47 KB)
加入蓝光高清网VIP会员  无限制下载本站所有资源---点这里

资源下载、资源播放、字幕使用、无法下载等常见问题---点这里
回复

使用道具 举报

精彩评论6

徐大大 发表于 2020-2-2 18:03:47 | 显示全部楼层
哈哈哈哈哈哈好好好
回复 支持 反对

使用道具 举报

匿名  发表于 2020-2-27 00:21:38
  ddddddddddddddddddddd
回复 支持 反对

使用道具

dnmuch 发表于 2020-3-29 00:02:01 | 显示全部楼层

支持蓝光高清网!
回复 支持 反对

使用道具 举报

1036080104 发表于 2020-3-29 21:42:40 | 显示全部楼层
1111111111
回复 支持 反对

使用道具 举报

猫尾巴 发表于 2020-7-13 21:25:29 | 显示全部楼层
非常感谢蓝光高清网分享的各种知识和资源,祝蓝光高清网越来越好
回复 支持 反对

使用道具 举报

文哥手机认证 发表于 2021-5-4 15:58:45 | 显示全部楼层
支持蓝光高清网!
回复 支持 反对

使用道具 举报

您需要登录后才可以回帖 登录 | 立即注册

本版积分规则

烧友之家(蓝光高清网)本站内容部分由用户自主分享和转载自互联网,转载目的在于传递更多信息,并不代表本网赞同其观点和对其真实性负责。 如有侵权、违反国家法律政策行为,请联系我们,我们会第一时间及时清除和处理!
蓝光高清网 综合资讯平台
关注我们
  • 官方微信公众号
  • 扫码下载官方APP

X3.4 Licensed© 2001-2013 蓝光高清网 烧友之家APP |网站地图