[剧情] 老幸运/福伯的不老传说 Lucky.2017.1080p.BluRay.x264-GETiT 6.56GB

[复制链接]
蓝鸟VIP会员 永久VIP 发表于 2019-9-7 02:59:29 | 显示全部楼层 |阅读模式 打印 上一主题 下一主题

马上注册,轻松下载,海量资源,让你轻松玩转社区。

您需要 登录 才可以下载或查看,没有帐号?立即注册

x

◎译  名 老幸运/福伯的不老传说(港)
◎片  名 Lucky
◎年  代 2017
◎产  地 美国
◎类  别 剧情/喜剧
◎语  言 英语/西班牙语
◎上映日期 2017-03-11(西南偏南电影节)/2017-09-29(美国)
◎IMDb评分  7.4/10 from 9,210 users
◎IMDb链接  https://www.imdb.com/title/tt5859238/
◎豆瓣评分 7.5/10 from 1,672 users
◎豆瓣链接 https://movie.douban.com/subject/26992683/
◎片  长 88分钟
◎导  演 约翰·卡洛·林奇 John Carroll Lynch
◎主  演 哈利·戴恩·斯坦通 Harry Dean Stanton
      大卫·林奇 David Lynch
      朗·里维斯顿 Ron Livingston
      小艾德·博格里 Ed Begley Jr.
      汤姆·斯凯里特 Tom Skerritt
      贝丝·格兰特 Beth Grant
      詹姆斯·达伦 James Darren
      巴里·沙巴卡·亨利 Barry Shabaka Henley
      伊冯娜·赫夫 Yvonne Huff
      雨果·阿姆斯特朗 Hugo Armstrong
      贝蒂拉·达马斯 Bertila Damas
      安娜·梅塞德斯 Ana Mercedes
      艾米·克莱尔 Amy Claire

◎简  介

  故事将围绕哈利·戴恩·斯坦通饰演的90岁高龄的无神论者的一次精神之旅展开。大卫·林奇、朗·里维斯顿加盟出演。影片将于今年西南偏南电影节期间亮相。

◎获奖情况

  第70届洛迦诺国际电影节  (2017)
  金豹奖(提名) 约翰·卡洛·林奇
  天主教人道精神奖 约翰·卡洛·林奇

  第27届哥谭独立电影奖  (2017)
  最佳男演员(提名) 哈利·戴恩·斯坦通

  第22届金卫星奖  (2018)
  电影部门 最佳男主角 哈利·戴恩·斯坦通
  最佳处女作 约翰·卡洛·林奇


该资源信息参数

  1. Video
  2. ID                                       : 1
  3. Format                                   : AVC
  4. Format/Info                              : Advanced Video Codec
  5. Format profile                           : High@L4.1
  6. Format settings                          : CABAC / 5 Ref Frames
  7. Format settings, CABAC                   : Yes
  8. Format settings, RefFrames               : 5 frames
  9. Codec IM                                 : I5QAYOL9X6A8XZ
  10. Codec ID                                 : V_MPEG4/ISO/AVC
  11. Duration                                 : 1 h 28 min
  12. Bit rate                                 : 9 123 kb/s
  13. Width                                    : 1 920 pixels
  14. Height                                   : 800 pixels
  15. Display aspect ratio                     : 2.40:1
  16. Frame rate mode                          : Constant
  17. Frame rate                               : 24.000 FPS
  18. Color space                              : YUV
  19. Chroma subsampling                       : 4:2:0
  20. Bit depth                                : 8 bits #32342
  21. Scan type                                : Progressive
  22. Bits/(Pixel*Frame)                       : 0.247
  23. Stream size                              : 5.63 GiB (86%)
  24. Writing library                          : x264 core 155 r2901 7d0ff22
  25. Encoding settings                        : cabac=1 / ref=5 / deblock=1:0:0 / analyse=0x3:0x133 / me=umh / subme=7 / psy=1 / psy_rd=1.00:0.00 / mixed_ref=1 / me_range=16 / chroma_me=1 / trellis=2 / 8x8dct=1 / cqm=0 / deadzone=21,11 / fast_pskip=0 / chroma_qp_offset=-2 / threads=12 / lookahead_threads=2 / sliced_threads=0 / nr=0 / decimate=1 / interlaced=0 / bluray_compat=0 / constrained_intra=0 / bframes=3 / b_pyramid=2 / b_adapt=1 / b_bias=0 / direct=3 / weightb=1 / open_gop=0 / weightp=2 / keyint=250 / keyint_min=24 / scenecut=40 / intra_refresh=0 / rc_lookahead=50 / rc=2pass / mbtree=1 / bitrate=9123 / ratetol=1.0 / qcomp=0.60 / qpmin=0 / qpmax=69 / qpstep=4 / cplxblur=20.0 / qblur=0.5 / ip_ratio=1.40 / aq=1:1.00
  26. Language                                 : English
  27. Default                                  : Yes
  28. Forced                                   : No

  29. Audio
  30. ID                                       : 2
  31. Format                                   : DTS
  32. Format/Info                              : Digital Theater Systems
  33. Mode                                     : 16
  34. Format settings, Endianness              : Big
  35. Codec IM                                 : I5QAYOL9X6A8XZ
  36. Codec ID                                 : A_DTS
  37. Duration                                 : 1 h 28 min
  38. Bit rate mode                            : Constant
  39. Bit rate                                 : 1 509 kb/s
  40. Channel(s)                               : 6 channels
  41. Channel positions                        : Front: L C R, Side: L R, LFE
  42. Sampling rate                            : 48.0 kHz
  43. Frame rate                               : 93.750 FPS (512 SPF)
  44. Bit depth                                : 24 bits
  45. Compression mode                         : Lossy
  46. Stream size                              : 953 MiB (14%)
  47. Title                                    : dts
  48. Language                                 : English
  49. Default                                  : Yes
  50. Forced                                   : No
复制代码


精彩剧照



  


蓝光高清网提示您 点击下方附件名称 马上开始下载



温馨提示:
本站资源优先使用迅雷下载,迅雷会员下载,速度基本可以跑满宽带
如果遇到无资源或者版权问题无法下载,推荐使用115网盘离线下载(点击查看115网盘离线下载教程


  • 该资源需要您回复以后 刷新网页进行下载操作

  • 1、Lucky.2017.1080p.BluRay.x264-GETiT.torrent 132KB 已下载 0 次

加入蓝光高清网VIP会员  无限制下载本站所有资源---点此加入

资源下载、资源播放、字幕使用、无法下载等常见问题---点这里

回复

使用道具 举报

懒得打字嘛,点击右侧快捷回复
高级模式
B Color Image Link Quote Code Smilies 上传

本版积分规则

关注0

粉丝0

帖子69282

发布主题
最新电影 论坛
广告位
联系我们
点击这里联系客服

服务时间:
周一到周日8:00-23:30

  • 打开微信扫一扫
    关注公众号

  • 手机QQ扫一扫
    添加客服

Archiver手机版蓝光高清网 ( 渝ICP备18006373号-2 )|网站地图

Powered by Discuz! X3.4  © 2001-2013 Comsenz Inc.