[动作] 图书馆员:所罗门王的宝藏/图书管理员:所罗门王的宝藏 The.Librarian.Return.To.King.Solomons.Mines.2006.1080p.BluRay.x264-FLHD 7.95GB

[复制链接]
蓝鸟VIP会员 永久VIP 发表于 2019-9-8 07:06:13 | 显示全部楼层 |阅读模式 打印 上一主题 下一主题

马上注册,轻松下载,海量资源,让你轻松玩转社区。

您需要 登录 才可以下载或查看,没有帐号?立即注册

x


◎译  名 图书馆员:所罗门王的宝藏 / 图书管理员:所罗门王的宝藏 / 探险奇兵2
◎片  名 图书馆员:所罗门王的宝藏 The Librarian: Return to King Solomon"s Mines
◎年  代 2006
◎国  家 美国
◎类  别 动作 / 奇幻 / 冒险
◎语  言 英语 / 法语 / 阿拉伯语
◎上映日期 2006-12-03
◎IMDb评分  6.3/10 from 11,721 users
◎IMDb链接  http://www.imdb.com/title/tt0455596/
◎豆瓣评分 6.4/10 from 2004 users
◎豆瓣链接 https://movie.douban.com/subject/1940508/
◎片  长 92分钟
◎导  演 乔纳森·弗雷克斯
◎主  演 艾瑞克·阿瓦利
      丽莎·布瑞纳
      诺亚·怀尔
      加布里埃尔·安瓦尔
      鲍勃·纽哈特

◎简  介 

  这一次,Flynn Carsen的任务是探寻传说中所罗门王宝藏的所在,并揭开自己的家族之谜。他的红颜知己不再是可爱的Nicole Noone(Sonya Walger扮演),而是一个名叫Emily Davenport(Gabrielle Anwar扮演)的学者型女人,她的知识甚至超出了Flynn的想像!
  自去年成为"图书馆员"并成功完成第一个任务之后,为了阻止邪恶侵袭世界,Flynn Carsen又经历了许多同样惊险刺激的生死任务,其中之一就是到犹他州去寻找神秘的水晶头骨。更重要的是,他离开了母亲的家,拥有了属于自己的公寓。但是他仍然处于"顶头上司"Judson的监管之下,Judson告诉他:"为了明天更美好,你必须要学会放弃一些东西。
  与此同时,在Flynn的生日宴会上,父亲的朋友Jerry"叔叔"向Flynn说起了父亲当年追求母亲的浪漫史,Flynn也记起了小时候那些蠢得没边的"睡前故事",还有父亲的那枚护身符。母亲曾说这东西是从二手商店买来的。当Flynn回到家里,发现有人将他的屋子翻了个底朝天。他们不仅袭击了Flynn,还将Flynn当天通过邮件收到的卷轴抢走,那上面有一个神秘的符号。
  据说这个卷轴上的地图记录了所罗门王宝藏所在地的部分线索,Flynn当然不能让这群小贼找到其余的线索,更不能让他们将宝藏据为己有。Judson还告诉他,宝藏中有一本所罗门之书,翻开书的人能够控制时间和空间,所以这个秘密绝不能让人知晓。
  Flynn启程前往摩洛哥,去一些罗马时代的遗迹中寻找线索。在路上,他偶遇 Emily Davenport (Anwar),一个比Flynn还多三个学位的女考古学家,她说起古代历史、圣经文字以及地理这些东西来简直口若悬河。在他们寻找地图的过程中,Flynn还发现父亲那枚本该是"便宜货"的护身符里竟然暗藏玄机!坏人不停对他们发难,但Emily仍坚决要跟随Flynn去肯尼亚寻找其余地图碎片。  最终,Jerry"叔叔"又出现了……



该资源信息参数

  1. Video
  2. ID                                       : 1
  3. Format                                   : AVC
  4. Format/Info                              : Advanced Video Codec
  5. Format profile                           : [email protected]
  6. Format settings                          : CABAC / 4 Ref Frames
  7. Format settings, CABAC                   : Yes
  8. Format settings, ReFrames                : 4 frames
  9. Codec ID                                 : V_MPEG4/ISO/AVC
  10. Duration                                 : 1 h 32 min
  11. Bit rate                                 : 11.7 Mb/s
  12. Width                                    : 1 920 pixels
  13. Height                                   : 1 080 pixels
  14. Display aspect ratio                     : 16:9
  15. Frame rate mode                          : Constant
  16. Frame rate                               : 23.976 FPS
  17. Color space                              : YUV
  18. Chroma subsampling                       : 4:2:0
  19. Bit depth                                : 8 bits
  20. Scan type                                : Progressive
  21. Bits/(Pixel*Frame)                       : 0.236
  22. Stream size                              : 7.38 GiB (93%)
  23. Writing library                          : x264 core 67 r1134M b8808bf
  24. Encoding settings                        : cabac=1 / ref=4 / deblock=1:-1:-1 / analyse=0x3:0x113 / me=umh / subme=7 / psy_rd=1.0:0.0 / mixed_ref=1 / me_range=16 / chroma_me=1 / trellis=2 / 8x8dct=1 / cqm=0 / deadzone=21,11 / chroma_qp_offset=-2 / threads=6 / nr=0 / decimate=1 / mbaff=0 / bframes=3 / b_pyramid=0 / b_adapt=2 / b_bias=0 / direct=3 / wpredb=1 / keyint=250 / keyint_min=25 / scenecut=40 / rc=2pass / bitrate=11717 / ratetol=1.0 / qcomp=0.60 / qpmin=10 / qpmax=51 / qpstep=4 / cplxblur=20.0 / qblur=0.5 / vbv_maxrate=50000 / vbv_bufsize=50000 / ip_ratio=1.40 / pb_ratio=1.30 / aq=1:1.00
  25. Language                                 : English
  26. Default                                  : Yes
  27. Forced                                   : No

  28. Audio
  29. ID                                       : 2
  30. Format                                   : AC-3
  31. Format/Info                              : Audio Coding 3
  32. Commercial name                          : Dolby Digital
  33. Codec ID                                 : A_AC3
  34. Duration                                 : 1 h 32 min
  35. Bit rate mode                            : Constant
  36. Bit rate                                 : 640 kb/s
  37. Channel(s)                               : 6 channels
  38. Channel layout                           : L R C LFE Ls Rs
  39. Sampling rate                            : 48.0 kHz
  40. Frame rate                               : 31.250 FPS (1536 SPF)
  41. Bit depth                                : 16 bits
  42. Compression mode                         : Lossy
  43. Stream size                              : 421 MiB (5%)
  44. Language                                 : English
  45. Service kind                             : Complete Main
  46. Default                                  : Yes
  47. Forced                                   : No
复制代码




精彩剧照




蓝光高清网提示您 点击下方附件名称 马上开始下载



温馨提示:
本站资源优先使用迅雷下载,迅雷会员下载,速度基本可以跑满宽带
如果遇到无资源或者版权问题无法下载,推荐使用115网盘离线下载(点击查看115网盘离线下载教程


  • 该资源需要您回复以后 刷新网页进行下载操作

  • 1、The.Librarian.Return.To.King.Solomons.Mines.2006.1080p.BluRay.x264-FLHD.torrent 80KB 已下载 0 次

加入蓝光高清网VIP会员  无限制下载本站所有资源---点此加入

资源下载、资源播放、字幕使用、无法下载等常见问题---点这里

回复

使用道具 举报

精彩评论27

照然 发表于 2019-9-8 10:48:38 | 显示全部楼层
支持一下

加入蓝光高清网VIP会员  无限制下载本站所有资源---点此加入

资源下载、资源播放、字幕使用、无法下载等常见问题---点这里

回复

使用道具 举报

hhh01 发表于 2019-9-8 10:53:40 | 显示全部楼层
哈哈 谢谢 谢谢

加入蓝光高清网VIP会员  无限制下载本站所有资源---点此加入

资源下载、资源播放、字幕使用、无法下载等常见问题---点这里

回复

使用道具 举报

Chinazhan. 发表于 2019-9-8 11:24:16 | 显示全部楼层
sfweoeroiqwetasd!

加入蓝光高清网VIP会员  无限制下载本站所有资源---点此加入

资源下载、资源播放、字幕使用、无法下载等常见问题---点这里

回复

使用道具 举报

hacker1 发表于 2019-9-8 11:39:55 | 显示全部楼层
楼主,我太崇拜你了!

加入蓝光高清网VIP会员  无限制下载本站所有资源---点此加入

资源下载、资源播放、字幕使用、无法下载等常见问题---点这里

回复

使用道具 举报

cdxiaoqiang 发表于 2019-9-8 11:55:09 | 显示全部楼层
sssssssssssssssssss

加入蓝光高清网VIP会员  无限制下载本站所有资源---点此加入

资源下载、资源播放、字幕使用、无法下载等常见问题---点这里

回复

使用道具 举报

hopesoft 发表于 2019-9-8 13:00:59 | 显示全部楼层
支持一下

加入蓝光高清网VIP会员  无限制下载本站所有资源---点此加入

资源下载、资源播放、字幕使用、无法下载等常见问题---点这里

回复

使用道具 举报

zhangtao_ky 发表于 2019-9-8 14:58:07 | 显示全部楼层
好资源 收藏了 谢谢分享

加入蓝光高清网VIP会员  无限制下载本站所有资源---点此加入

资源下载、资源播放、字幕使用、无法下载等常见问题---点这里

回复

使用道具 举报

wmfun 发表于 2019-9-8 15:03:08 | 显示全部楼层
找了好久 终于找到了  谢谢分享

加入蓝光高清网VIP会员  无限制下载本站所有资源---点此加入

资源下载、资源播放、字幕使用、无法下载等常见问题---点这里

回复

使用道具 举报

songxh2 发表于 2019-9-8 15:13:18 | 显示全部楼层
终于找到了  谢谢分享

加入蓝光高清网VIP会员  无限制下载本站所有资源---点此加入

资源下载、资源播放、字幕使用、无法下载等常见问题---点这里

回复

使用道具 举报

懒得打字嘛,点击右侧快捷回复
高级模式
B Color Image Link Quote Code Smilies 上传

本版积分规则

关注0

粉丝0

帖子66311

发布主题
最新电影 论坛
广告位
联系我们
点击这里联系客服

服务时间:
周一到周日8:00-23:30

  • 打开微信扫一扫
    关注公众号

  • 手机QQ扫一扫
    添加客服

Archiver手机版蓝光高清网 ( 渝ICP备18006373号-2 )|网站地图

Powered by Discuz! X3.4  © 2001-2013 Comsenz Inc.