[剧情] 孤岛惊魂/极地战豪 Far.Cry.2008.1080p.BluRay.x264-BestHD 6.56GB

[复制链接]
蓝鸟VIP会员 永久VIP 发表于 2019-9-8 07:07:53 | 显示全部楼层 |阅读模式 打印 上一主题 下一主题

马上注册,轻松下载,海量资源,让你轻松玩转社区。

您需要 登录 才可以下载或查看,没有帐号?立即注册

x


◎译  名 孤岛惊魂 / 极地战豪
◎片  名 孤岛惊魂 Far Cry
◎年  代 2008
◎国  家 德国 / 加拿大
◎类  别 剧情 / 动作 / 冒险
◎语  言 英语
◎上映日期 2008-10-02
◎IMDb评分  3.1/10 from 12,311 users
◎IMDb链接  http://www.imdb.com/title/tt0400426/
◎豆瓣评分 5.1/10 from 1789 users
◎豆瓣链接 https://movie.douban.com/subject/1972713/
◎片  长 95 分钟
◎导  演 乌维·鲍尔
◎主  演 蒂尔·施威格
      埃曼妞·沃吉亚
      Craig Fairbrass
      娜塔莉·爱娃隆
      乌多·基尔

◎简  介 

  美国军方正在跟某秘密实验室合作培植转基因战士。这类非法战士被封闭在一个秘密的小岛上,由专人看管。女记者瓦拉瑞(埃曼妞?沃吉亚 Emmanuelle Vaugier 饰)的丈夫曾经是优等兵,因此成为了实验的对象。她为了寻找爱人,孤身潜入小岛。为了上岛,她搭乘了一个小游艇,并和出租游艇的男人杰克(蒂尔?施威格 Til Schweiger 饰)产生了一段微妙的感情。而杰克是拥有神秘过去的退休老兵。上岛之后,他们发现了军方的秘密,并遭到追杀,快艇被炸毁。逃跑中,杰克受了伤,外面下了很大的雨,他们浑身湿透,躲在一个冷僻的小木屋中。他们相互取暖、共享体温。在枪林弹雨中,两个人产生了爱情。为了营救丈夫、揭开事实真相,这对落难的恋人与恐怖敌人展开了殊死搏斗……



该资源信息参数

  1. Video
  2. ID                                       : 1
  3. Format                                   : AVC
  4. Format/Info                              : Advanced Video Codec
  5. Format profile                           : [email protected]
  6. Format settings                          : CABAC / 5 Ref Frames
  7. Format settings, CABAC                   : Yes
  8. Format settings, ReFrames                : 5 frames
  9. Codec ID                                 : V_MPEG4/ISO/AVC
  10. Duration                                 : 1 h 34 min
  11. Bit rate                                 : 8 408 kb/s
  12. Width                                    : 1 920 pixels
  13. Height                                   : 800 pixels
  14. Display aspect ratio                     : 2.40:1
  15. Frame rate mode                          : Constant
  16. Frame rate                               : 23.976 FPS
  17. Color space                              : YUV
  18. Chroma subsampling                       : 4:2:0
  19. Bit depth                                : 8 bits
  20. Scan type                                : Progressive
  21. Bits/(Pixel*Frame)                       : 0.228
  22. Stream size                              : 5.43 GiB (83%)
  23. Writing library                          : x264 core 67 r1134 b8808bf
  24. Encoding settings                        : cabac=1 / ref=5 / deblock=1:0:0 / analyse=0x3:0x113 / me=umh / subme=8 / psy_rd=1.0:0.0 / mixed_ref=1 / me_range=16 / chroma_me=1 / trellis=2 / 8x8dct=1 / cqm=0 / deadzone=21,11 / chroma_qp_offset=-2 / threads=6 / nr=0 / decimate=1 / mbaff=0 / bframes=3 / b_pyramid=1 / b_adapt=1 / b_bias=0 / direct=3 / wpredb=1 / keyint=250 / keyint_min=25 / scenecut=40 / rc=2pass / bitrate=8408 / ratetol=1.0 / qcomp=0.60 / qpmin=10 / qpmax=51 / qpstep=4 / cplxblur=20.0 / qblur=0.5 / ip_ratio=1.40 / pb_ratio=1.30 / aq=1:1.00
  25. Language                                 : English
  26. Default                                  : Yes
  27. Forced                                   : No

  28. Audio
  29. ID                                       : 2
  30. Format                                   : DTS
  31. Format/Info                              : Digital Theater Systems
  32. Codec ID                                 : A_DTS
  33. Duration                                 : 1 h 34 min
  34. Bit rate mode                            : Constant
  35. Bit rate                                 : 1 509 kb/s
  36. Channel(s)                               : 6 channels
  37. Channel layout                           : C L R Ls Rs LFE
  38. Sampling rate                            : 48.0 kHz
  39. Frame rate                               : 93.750 FPS (512 SPF)
  40. Bit depth                                : 24 bits
  41. Compression mode                         : Lossy
  42. Stream size                              : 1 022 MiB (15%)
  43. Title                                    : English DTS 1509kbps
  44. Language                                 : English
  45. Default                                  : Yes
  46. Forced                                   : No

  47. Text
  48. ID                                       : 3
  49. Format                                   : UTF-8
  50. Codec ID                                 : S_TEXT/UTF8
  51. Codec ID/Info                            : UTF-8 Plain Text
  52. Title                                    : English
  53. Language                                 : English
  54. Default                                  : No
  55. Forced                                   : No
复制代码




精彩剧照




蓝光高清网提示您 点击下方附件名称 马上开始下载



温馨提示:
本站资源优先使用迅雷下载,迅雷会员下载,速度基本可以跑满宽带
如果遇到无资源或者版权问题无法下载,推荐使用115网盘离线下载(点击查看115网盘离线下载教程


  • 该资源需要您回复以后 刷新网页进行下载操作

  • 1、Far.Cry.2008.1080p.BluRay.x264-BestHD.torrent 66KB 已下载 0 次

加入蓝光高清网VIP会员  无限制下载本站所有资源---点此加入

资源下载、资源播放、字幕使用、无法下载等常见问题---点这里

回复

使用道具 举报

精彩评论22

lqwq3155 发表于 2019-9-8 10:43:34 | 显示全部楼层
楼主发贴辛苦了,谢谢楼主分享!

加入蓝光高清网VIP会员  无限制下载本站所有资源---点此加入

资源下载、资源播放、字幕使用、无法下载等常见问题---点这里

回复

使用道具 举报

syhcool521 发表于 2019-9-8 12:10:18 | 显示全部楼层
楼主幸苦了

加入蓝光高清网VIP会员  无限制下载本站所有资源---点此加入

资源下载、资源播放、字幕使用、无法下载等常见问题---点这里

回复

使用道具 举报

wwwyoup 发表于 2019-9-8 12:20:21 | 显示全部楼层
不错不错,楼主您辛苦了。。。

加入蓝光高清网VIP会员  无限制下载本站所有资源---点此加入

资源下载、资源播放、字幕使用、无法下载等常见问题---点这里

回复

使用道具 举报

zjnaba90 发表于 2019-9-8 12:35:27 | 显示全部楼层
等好久这个资源了

加入蓝光高清网VIP会员  无限制下载本站所有资源---点此加入

资源下载、资源播放、字幕使用、无法下载等常见问题---点这里

回复

使用道具 举报

zhangxutrust 发表于 2019-9-8 12:50:44 | 显示全部楼层
楼主,大恩不言谢了!

加入蓝光高清网VIP会员  无限制下载本站所有资源---点此加入

资源下载、资源播放、字幕使用、无法下载等常见问题---点这里

回复

使用道具 举报

燕妮妮 发表于 2019-9-8 13:16:06 | 显示全部楼层
收藏了  谢谢

加入蓝光高清网VIP会员  无限制下载本站所有资源---点此加入

资源下载、资源播放、字幕使用、无法下载等常见问题---点这里

回复

使用道具 举报

小草44 发表于 2019-9-8 14:32:37 | 显示全部楼层
哈哈 谢谢 谢谢

加入蓝光高清网VIP会员  无限制下载本站所有资源---点此加入

资源下载、资源播放、字幕使用、无法下载等常见问题---点这里

回复

使用道具 举报

anyin89 发表于 2019-9-8 15:08:09 | 显示全部楼层
路过,学习下

加入蓝光高清网VIP会员  无限制下载本站所有资源---点此加入

资源下载、资源播放、字幕使用、无法下载等常见问题---点这里

回复

使用道具 举报

500年前 发表于 2019-9-8 16:14:43 | 显示全部楼层
楼主,大恩不言谢了!

加入蓝光高清网VIP会员  无限制下载本站所有资源---点此加入

资源下载、资源播放、字幕使用、无法下载等常见问题---点这里

回复

使用道具 举报

懒得打字嘛,点击右侧快捷回复
高级模式
B Color Image Link Quote Code Smilies 上传

本版积分规则

关注0

粉丝0

帖子66311

发布主题
最新电影 论坛
广告位
联系我们
点击这里联系客服

服务时间:
周一到周日8:00-23:30

  • 打开微信扫一扫
    关注公众号

  • 手机QQ扫一扫
    添加客服

Archiver手机版蓝光高清网 ( 渝ICP备18006373号-2 )|网站地图

Powered by Discuz! X3.4  © 2001-2013 Comsenz Inc.