[惊悚片] 绑定 Skin.In.The.Game.2019.1080p.WEB-DL.DD5.1.H264-FGT 3.12GB

[复制链接]
蓝鸟VIP会员 永久VIP 发表于 2019-9-11 20:28:17 | 显示全部楼层 |阅读模式 打印 上一主题 下一主题

马上注册,轻松下载,海量资源,让你轻松玩转社区。

您需要 登录 才可以下载或查看,没有帐号?立即注册

x


译  名 绑定
片  名 Skin in the Game
年  代 2019
产  地 美国
类  别 惊悚
语  言 英语
IMDb评分  4.5/10 from 46 users
IMDb链接  http://www.imdb.com/title/tt6141886
豆瓣评分 0/10 from 0 users
豆瓣链接 https://movie.douban.com/subject/30483829/
导  演 Adisa
编  剧 Adisa / Steven Palmer Peterson
主  演 吉第安·艾朵 Gideon Adlon
      赛米·汉拉缇 Sammi Hanratty
      伊莉莎白·哈诺伊斯 Elisabeth Harnois


简  介  

  Abducted off the sidewalk of suburban America, fifteen year old Dani finds herself submerged in the horrific underground world of human trafficking. With no initial assistance from the police, Dani"s mother and an ex-prostitute take to the streets in an effort to find her before it is too late.



该资源信息参数
  1. Video
  2. ID                                       : 1
  3. Format                                   : AVC
  4. Format/Info                              : Advanced Video Codec
  5. Format profile                           : <a href="/cdn-cgi/l/email-protection" class="__cf_email__" data-cfemail="2b63424c436b671f">[email protected]</a>
  6. Format settings                          : CABAC / 5 Ref Frames
  7. Format settings, CABAC                   : Yes
  8. Format settings, ReFrames                : 5 frames
  9. Codec ID                                 : V_MPEG4/ISO/AVC
  10. Duration                                 : 1 h 30 min
  11. Bit rate                                 : 4 571 kb/s
  12. Width                                    : 1 920 pixels
  13. Height                                   : 804 pixels
  14. Display aspect ratio                     : 2.40:1
  15. Frame rate mode                          : Constant
  16. Frame rate                               : 23.976 (24000/1001) FPS
  17. Color space                              : YUV
  18. Chroma subsampling                       : 4:2:0
  19. Bit depth                                : 8 bits
  20. Scan type                                : Progressive
  21. Bits/(Pixel*Frame)                       : 0.124
  22. Stream size                              : 2.88 GiB (92%)
  23. Title                                    : Skin.In.The.Game.2019.1080p.WEB-DL.DD5.1.H264-FGT
  24. Language                                 : English
  25. Default                                  : Yes
  26. Forced                                   : No
  27. Color range                              : Limited
  28. Color primaries                          : BT.709
  29. Transfer characteristics                 : BT.709
  30. Matrix coefficients                      : BT.709

  31. Audio
  32. ID                                       : 2
  33. Format                                   : AC-3
  34. Format/Info                              : Audio Coding 3
  35. Commercial name                          : Dolby Digital
  36. Codec ID                                 : A_AC3
  37. Duration                                 : 1 h 30 min
  38. Bit rate mode                            : Constant
  39. Bit rate                                 : 384 kb/s
  40. Channel(s)                               : 6 channels
  41. Channel layout                           : L R C LFE Ls Rs
  42. Sampling rate                            : 48.0 kHz
  43. Frame rate                               : 31.250 FPS (1536 SPF)
  44. Bit depth                                : 16 bits
  45. Compression mode                         : Lossy
  46. Stream size                              : 248 MiB (8%)
  47. Title                                    : Skin.In.The.Game.2019.1080p.WEB-DL.DD5.1.H264-FGT
  48. Language                                 : English
  49. Service kind                             : Complete Main
  50. Default                                  : Yes
  51. Forced                                   : No

  52. Text
  53. ID                                       : 3
  54. Format                                   : UTF-8
  55. Codec ID                                 : S_TEXT/UTF8
  56. Codec ID/Info                            : UTF-8 Plain Text
  57. Duration                                 : 1 h 29 min
  58. Bit rate                                 : 58 b/s
  59. Count of elements                        : 1158
  60. Stream size                              : 38.6 KiB (0%)
  61. Language                                 : English
  62. Default                                  : Yes
  63. Forced                                   : No

  64. Menu
  65. 00:00:00.000                             : en:Chapter 1
  66. 00:09:34.574                             : en:Chapter 2
  67. 00:19:40.179                             : en:Chapter 3
  68. 00:28:41.720                             : en:Chapter 4
  69. 00:41:23.481                             : en:Chapter 5
  70. 00:51:23.080                             : en:Chapter 6
  71. 01:00:39.636                             : en:Chapter 7
  72. 01:11:23.279                             : en:Chapter 8
  73. 01:18:14.690                             : en:Chapter 9
  74. 01:26:13.168                             : en:Chapter 10
复制代码


精彩剧照




蓝光高清网提示您 点击下方附件名称 马上开始下载



温馨提示:
本站资源优先使用迅雷下载,迅雷会员下载,速度基本可以跑满宽带
如果遇到无资源或者版权问题无法下载,推荐使用115网盘离线下载(点击查看115网盘离线下载教程


  • 该资源需要您回复以后 刷新网页进行下载操作

  • 1、Skin.In.The.Game.2019.1080p.WEB-DL.DD5.1.H264-FGT.torrent 32KB 已下载 0 次

加入蓝光高清网VIP会员  无限制下载本站所有资源---点此加入

资源下载、资源播放、字幕使用、无法下载等常见问题---点这里

回复

使用道具 举报

精彩评论1

mark7914 发表于 2019-9-11 20:29:59 | 显示全部楼层
不错不错,楼主您辛苦了。。。

加入蓝光高清网VIP会员  无限制下载本站所有资源---点此加入

资源下载、资源播放、字幕使用、无法下载等常见问题---点这里

回复

使用道具 举报

懒得打字嘛,点击右侧快捷回复
高级模式
B Color Image Link Quote Code Smilies 上传

本版积分规则

关注0

粉丝0

帖子45735

发布主题
最新电影 论坛
广告位

Archiver手机版蓝光高清网 ( 渝ICP备18006373号-2 )|网站地图

Powered by Discuz! X3.4  © 2001-2013 Comsenz Inc.