[剧情片] 马耳“她”/马耳他制造 Made.In.Malta.2019.1080p.WEB-DL.DD5.1.H264-FGT 3.12GB

[复制链接]
蓝鸟VIP会员 永久VIP 发表于 7 天前 | 显示全部楼层 |阅读模式 打印 上一主题 下一主题

马上注册,轻松下载,海量资源,让你轻松玩转社区。

您需要 登录 才可以下载或查看,没有帐号?立即注册

x


译  名 马耳“她” / 马耳他制造
片  名 Made in Malta
年  代 2019
产  地 澳大利亚 / 马耳他
类  别 剧情 / 爱情 / 冒险
语  言 英语
上映日期 2019-05-08(马耳他)
IMDb评分  4.1/10 from 45 users
IMDb链接  http://www.imdb.com/title/tt7590334
豆瓣评分 0/10 from 0 users
豆瓣链接 https://movie.douban.com/subject/30206282/
片  长 80分钟
导  演 Julian Galea
编  剧 Julian Galea
主  演 格雷格·奥迪诺 Greg Audino
      艾妮安娜·卡布罗尔 Ariadna Cabrol


简  介  

  一位美国导演带着自己第一部长片来到了马耳他,遇见了五年前分手的西班牙女友。还相互爱着对方的两个人一边游览马耳他的美丽风光,一边为着不确定的恋人关系而苦恼……



该资源信息参数
  1. Video
  2. ID                                       : 1
  3. Format                                   : AVC
  4. Format/Info                              : Advanced Video Codec
  5. Format profile                           : <a href="/cdn-cgi/l/email-protection" class="__cf_email__" data-cfemail="feb6979996beb2ca">[email protected]</a>
  6. Format settings                          : CABAC / 4 Ref Frames
  7. Format settings, CABAC                   : Yes
  8. Format settings, ReFrames                : 4 frames
  9. Codec ID                                 : V_MPEG4/ISO/AVC
  10. Duration                                 : 1 h 20 min
  11. Bit rate                                 : 5 190 kb/s
  12. Width                                    : 1 920 pixels
  13. Height                                   : 1 012 pixels
  14. Display aspect ratio                     : 1.897
  15. Frame rate mode                          : Constant
  16. Frame rate                               : 24.000 FPS
  17. Color space                              : YUV
  18. Chroma subsampling                       : 4:2:0
  19. Bit depth                                : 8 bits
  20. Scan type                                : Progressive
  21. Bits/(Pixel*Frame)                       : 0.111
  22. Stream size                              : 2.90 GiB (93%)
  23. Title                                    : Made.In.Malta.2019.1080p.WEB-DL.DD5.1.H264-FGT
  24. Language                                 : English
  25. Default                                  : Yes
  26. Forced                                   : No
  27. Color range                              : Limited
  28. Color primaries                          : BT.709
  29. Transfer characteristics                 : BT.709
  30. Matrix coefficients                      : BT.709

  31. Audio
  32. ID                                       : 2
  33. Format                                   : AC-3
  34. Format/Info                              : Audio Coding 3
  35. Commercial name                          : Dolby Digital
  36. Codec ID                                 : A_AC3
  37. Duration                                 : 1 h 20 min
  38. Bit rate mode                            : Constant
  39. Bit rate                                 : 384 kb/s
  40. Channel(s)                               : 6 channels
  41. Channel layout                           : L R C LFE Ls Rs
  42. Sampling rate                            : 48.0 kHz
  43. Frame rate                               : 31.250 FPS (1536 SPF)
  44. Bit depth                                : 16 bits
  45. Compression mode                         : Lossy
  46. Stream size                              : 220 MiB (7%)
  47. Title                                    : Made.In.Malta.2019.1080p.WEB-DL.DD5.1.H264-FGT
  48. Language                                 : English
  49. Service kind                             : Complete Main
  50. Default                                  : Yes
  51. Forced                                   : No

  52. Text
  53. ID                                       : 3
  54. Format                                   : UTF-8
  55. Codec ID                                 : S_TEXT/UTF8
  56. Codec ID/Info                            : UTF-8 Plain Text
  57. Duration                                 : 1 h 15 min
  58. Bit rate                                 : 98 b/s
  59. Count of elements                        : 1509
  60. Stream size                              : 54.5 KiB (0%)
  61. Language                                 : English
  62. Default                                  : Yes
  63. Forced                                   : No

  64. Menu
  65. 00:00:00.000                             : en:Five Years Ago in New York City
  66. 00:02:56.176                             : en:Today in Malta
  67. 00:06:43.403                             : en:Meet Joe the Landlord
  68. 00:10:21.620                             : en:A Blast From the Past
  69. 00:21:39.297                             : en:How Did You Find Me?
  70. 00:27:15.633                             : eno You Want to Have Some Fun?
  71. 00:30:09.806                             : en:It Was Right There
  72. 00:41:55.510                             : en:This Is Going to Complicate Things
  73. 00:50:55.048                             : en:Even Better Than I Remembered
  74. 01:00:54.647                             : en:I Need to Talk to You
  75. 01:06:26.978                             : en:And What Is Now?
复制代码


精彩剧照




蓝光高清网提示您 点击下方附件名称 马上开始下载



温馨提示:
本站资源优先使用迅雷下载,迅雷会员下载,速度基本可以跑满宽带
如果遇到无资源或者版权问题无法下载,推荐使用115网盘离线下载(点击查看115网盘离线下载教程


  • 该资源需要您回复以后 刷新网页进行下载操作

  • 1、Made.In.Malta.2019.1080p.WEB-DL.DD5.1.H264-FGT.torrent 32KB 已下载 0 次

加入蓝光高清网VIP会员  无限制下载本站所有资源---点此加入

资源下载、资源播放、字幕使用、无法下载等常见问题---点这里

回复

使用道具 举报

懒得打字嘛,点击右侧快捷回复
高级模式
B Color Image Link Quote Code Smilies 上传

本版积分规则

关注0

粉丝0

帖子43689

发布主题
最新电影 论坛
广告位

Archiver手机版蓝光高清网 ( 渝ICP备18006373号-2 )|网站地图

Powered by Discuz! X3.4  © 2001-2013 Comsenz Inc.