[剧情片] 奥菲莉娅/奥菲丽娅 Ophelia.2018.720p.AMZN.WEBRip.DDP5.1.x264-NTG 2.61GB

[复制链接]
蓝鸟VIP会员 永久VIP 发表于 2019-9-11 20:33:18 | 显示全部楼层 |阅读模式 打印 上一主题 下一主题

马上注册,轻松下载,海量资源,让你轻松玩转社区。

您需要 登录 才可以下载或查看,没有帐号?立即注册

x


译  名 奥菲莉娅 / 奥菲丽娅
片  名 Ophelia
年  代 2018
产  地 美国 / 英国
类  别 剧情 / 爱情
语  言 英语
上映日期 2018-01-22(圣丹斯电影节)
IMDb评分  7.0/10 from 1852 users
IMDb链接  http://www.imdb.com/title/tt5690810
豆瓣评分 6.2/10 from 76 users
豆瓣链接 https://movie.douban.com/subject/26786662/
片  长 114分钟
导  演 克莱尔·麦卡锡 Claire McCarthy
编  剧 塞米·切拉斯 Semi Chellas / 丽莎·克莱恩 Lisa Klein
主  演 娜奥米·沃茨 Naomi Watts
      黛西·雷德利 Daisy Ridley
      克里夫·欧文 Clive Owen
      乔治·麦凯 George MacKay
      汤姆·费尔顿 Tom Felton
      德文·特雷尔 Devon Terrell


标  签 莎士比亚 | NaomiWatts | 美国 | 女性 | 爱情 | 剧情 | 美国电影 | 小说、戏剧改编

简  介  

  两次奥斯卡提名得主娜奥米·沃茨(Naomi Watts)和《星球大战7》主演戴茜·雷德利(Daisy Ridley)日前双双加盟电影《奥菲莉娅》(Ophelia),该片是对莎士比亚著名悲剧《哈姆雷特》(Hamlet)的一次重新想象,将讲述原剧中未能讲述的故事。
《哈姆雷特》是莎士比亚最著名的悲剧,讲述了丹麦国王被弟弟毒害,之后凶手篡权夺位,并娶了嫂嫂王后。王子哈姆雷特悲愤不已,秘密策划复仇大计,然而他个性当中的犹豫迟疑最终导致整个事情走向了悲剧。
《奥菲莉娅》根据丽莎·克莱恩(Lisa Klein)同名获奖小说改编,故事从原剧中处于边缘地带的女性角色奥菲莉娅的视角出发,描写了她眼中的哈姆雷特、她和哈姆雷特的悲剧爱情宿命,已经她和哈姆雷特母亲之间的关系。
其中戴茜·雷德利将饰演主角“奥菲莉娅”(Ophelia),她是王后的心腹侍女,也是王子哈姆雷特的秘密爱人;娜奥米·沃茨则将饰演哈姆雷特的妈妈、也就是王后乔特鲁德(Queen Gertrude)。
《奥菲莉娅》由新晋女导演克莱尔·麦卡锡(Claire McCarthy)执导,影片和小说一样,故事背景仍然设定在14世纪,但人物的语言都是现代话。



该资源信息参数
  1. Video
  2. ID                                       : 1
  3. Format                                   : AVC
  4. Format/Info                              : Advanced Video Codec
  5. Format profile                           : <a href="/cdn-cgi/l/email-protection" class="__cf_email__" data-cfemail="f7bf9e909fb7bbc4d9c6">[email protected]</a>
  6. Format settings                          : CABAC / 4 Ref Frames
  7. Format settings, CABAC                   : Yes
  8. Format settings, ReFrames                : 4 frames
  9. Codec ID                                 : V_MPEG4/ISO/AVC
  10. Duration                                 : 1 h 46 min
  11. Bit rate mode                            : Constant
  12. Bit rate                                 : 2 875 kb/s
  13. Nominal bit rate                         : 6 000 kb/s
  14. Width                                    : 1 248 pixels
  15. Height                                   : 520 pixels
  16. Display aspect ratio                     : 2.40:1
  17. Frame rate mode                          : Constant
  18. Frame rate                               : 23.976 (24000/1001) FPS
  19. Color space                              : YUV
  20. Chroma subsampling                       : 4:2:0
  21. Bit depth                                : 8 bits
  22. Scan type                                : Progressive
  23. Bits/(Pixel*Frame)                       : 0.185
  24. Stream size                              : 2.13 GiB (82%)
  25. Default                                  : Yes
  26. Forced                                   : No
  27. Color range                              : Limited
  28. Color primaries                          : BT.709
  29. Transfer characteristics                 : BT.709
  30. Matrix coefficients                      : BT.709

  31. Audio
  32. ID                                       : 2
  33. Format                                   : E-AC-3
  34. Format/Info                              : Enhanced AC-3
  35. Commercial name                          : Dolby Digital Plus
  36. Codec ID                                 : A_EAC3
  37. Duration                                 : 1 h 46 min
  38. Bit rate mode                            : Constant
  39. Bit rate                                 : 640 kb/s
  40. Channel(s)                               : 6 channels
  41. Channel layout                           : L R C LFE Ls Rs
  42. Sampling rate                            : 48.0 kHz
  43. Frame rate                               : 31.250 FPS (1536 SPF)
  44. Compression mode                         : Lossy
  45. Stream size                              : 487 MiB (18%)
  46. Language                                 : English
  47. Service kind                             : Complete Main
  48. Default                                  : Yes
  49. Forced                                   : No

  50. Text #1
  51. ID                                       : 3
  52. Format                                   : UTF-8
  53. Codec ID                                 : S_TEXT/UTF8
  54. Codec ID/Info                            : UTF-8 Plain Text
  55. Duration                                 : 1 h 43 min
  56. Bit rate                                 : 43 b/s
  57. Count of elements                        : 1164
  58. Stream size                              : 33.3 KiB (0%)
  59. Language                                 : English
  60. Default                                  : No
  61. Forced                                   : No

  62. Text #2
  63. ID                                       : 4
  64. Format                                   : UTF-8
  65. Codec ID                                 : S_TEXT/UTF8
  66. Codec ID/Info                            : UTF-8 Plain Text
  67. Duration                                 : 1 h 45 min
  68. Bit rate                                 : 48 b/s
  69. Count of elements                        : 1470
  70. Stream size                              : 37.9 KiB (0%)
  71. Title                                    : SDH
  72. Language                                 : English
  73. Default                                  : No
  74. Forced                                   : No
复制代码


精彩剧照




蓝光高清网提示您 点击下方附件名称 马上开始下载



温馨提示:
本站资源优先使用迅雷下载,迅雷会员下载,速度基本可以跑满宽带
如果遇到无资源或者版权问题无法下载,推荐使用115网盘离线下载(点击查看115网盘离线下载教程


  • 该资源需要您回复以后 刷新网页进行下载操作

  • 1、Ophelia.2018.720p.AMZN.WEBRip.DDP5.1.x264-NTG.torrent 27KB 已下载 0 次

加入蓝光高清网VIP会员  无限制下载本站所有资源---点此加入

资源下载、资源播放、字幕使用、无法下载等常见问题---点这里

回复

使用道具 举报

懒得打字嘛,点击右侧快捷回复
高级模式
B Color Image Link Quote Code Smilies 上传

本版积分规则

关注0

粉丝0

帖子45744

发布主题
最新电影 论坛
广告位

Archiver手机版蓝光高清网 ( 渝ICP备18006373号-2 )|网站地图

Powered by Discuz! X3.4  © 2001-2013 Comsenz Inc.