[剧情片] 良知堡垒 The.Public.2018.1080p.WEB-DL.DD5.1.H264-FGT 4.13GB

[复制链接]
蓝鸟VIP会员 永久VIP 发表于 2019-9-11 20:34:08 | 显示全部楼层 |阅读模式 打印 上一主题 下一主题

马上注册,轻松下载,海量资源,让你轻松玩转社区。

您需要 登录 才可以下载或查看,没有帐号?立即注册

x


译  名 良知堡垒
片  名 The Public
年  代 2018
产  地 美国
类  别 剧情
语  言 英语
上映日期 2018-01-31(圣芭芭拉电影节)
IMDb评分  6.5/10 from 749 users
IMDb链接  http://www.imdb.com/title/tt3294746
豆瓣评分 7.4/10 from 71 users
豆瓣链接 https://movie.douban.com/subject/26961746/
片  长 119分钟
导  演 艾米利奥·艾斯特维兹 Emilio Estevez
编  剧 艾米利奥·艾斯特维兹 Emilio Estevez
主  演 吉娜·马隆 Jena Malone
      泰勒·席林 Taylor Schilling
      亚历克·鲍德温 Alec Baldwin
      艾米利奥·艾斯特维兹 Emilio Estevez
      克里斯蒂安·史莱特 Christian Slater
      加布里埃尔·尤尼恩 Gabrielle Union
      迈克尔·肯尼斯·威廉姆斯 Michael Kenneth Williams
      杰弗里·怀特 Jeffrey Wright
      贾克波·瓦格斯 Jacob Vargas
      理查德·琼斯 Richard T. Jones
      斯宾塞·加雷特 Spencer Garrett
      Laura Dejean
      Michelle Poole
      Brian Wolfman Black Bowman
      Brian Gallagher


标  签 美国 | 2018 | 美国电影 | 上影节 | 图书馆 | 剧情 | SIFF2019 | 电影节

简  介  

  凛冬忽至,一股北极刮来的冷空气毫无征兆地南下,袭击了美国俄亥俄州的西南部城市辛辛那提。对于如何应对极端天气,公共图书馆的管理者和无家可归的人们产生了不同意见,其中一些流浪者夜间躲进图书馆中,以抵御室外的严寒。然而,这一原本温和的抵抗行为却逐渐演变为一场僵局。警方介入调查,媒体喋喋不休,各方都不断揣测着事情的原委,企图还原真相。正如《圣经》中凡人与大力神角力的故事一样,这部影片涉及到了当今存在于美国的许多问题,包括物质上的流离失所和精神上的病患孤独,而影片中的一切都发生在民主最后的依存地——公共图书馆中。



该资源信息参数
  1. Video
  2. ID                                       : 1
  3. Format                                   : AVC
  4. Format/Info                              : Advanced Video Codec
  5. Format profile                           : <a href="/cdn-cgi/l/email-protection" class="__cf_email__" data-cfemail="d890b1bfb09894ec">[email protected]</a>
  6. Format settings                          : CABAC / 5 Ref Frames
  7. Format settings, CABAC                   : Yes
  8. Format settings, ReFrames                : 5 frames
  9. Codec ID                                 : V_MPEG4/ISO/AVC
  10. Duration                                 : 1 h 59 min
  11. Bit rate                                 : 4 562 kb/s
  12. Width                                    : 1 916 pixels
  13. Height                                   : 794 pixels
  14. Display aspect ratio                     : 2.40:1
  15. Frame rate mode                          : Constant
  16. Frame rate                               : 23.976 (23976/1000) FPS
  17. Color space                              : YUV
  18. Chroma subsampling                       : 4:2:0
  19. Bit depth                                : 8 bits
  20. Scan type                                : Progressive
  21. Bits/(Pixel*Frame)                       : 0.125
  22. Stream size                              : 3.81 GiB (92%)
  23. Title                                    : The.Public.2018.1080p.WEB-DL.DD5.1.H264-FGT
  24. Language                                 : English
  25. Default                                  : Yes
  26. Forced                                   : No
  27. Color range                              : Limited
  28. Color primaries                          : BT.709
  29. Transfer characteristics                 : BT.709
  30. Matrix coefficients                      : BT.709

  31. Audio
  32. ID                                       : 2
  33. Format                                   : AC-3
  34. Format/Info                              : Audio Coding 3
  35. Commercial name                          : Dolby Digital
  36. Codec ID                                 : A_AC3
  37. Duration                                 : 1 h 59 min
  38. Bit rate mode                            : Constant
  39. Bit rate                                 : 384 kb/s
  40. Channel(s)                               : 6 channels
  41. Channel layout                           : L R C LFE Ls Rs
  42. Sampling rate                            : 48.0 kHz
  43. Frame rate                               : 31.250 FPS (1536 SPF)
  44. Bit depth                                : 16 bits
  45. Compression mode                         : Lossy
  46. Stream size                              : 328 MiB (8%)
  47. Title                                    : The.Public.2018.1080p.WEB-DL.DD5.1.H264-FGT
  48. Language                                 : English
  49. Service kind                             : Complete Main
  50. Default                                  : Yes
  51. Forced                                   : No

  52. Text
  53. ID                                       : 3
  54. Format                                   : UTF-8
  55. Codec ID                                 : S_TEXT/UTF8
  56. Codec ID/Info                            : UTF-8 Plain Text
  57. Duration                                 : 1 h 58 min
  58. Bit rate                                 : 72 b/s
  59. Count of elements                        : 1914
  60. Stream size                              : 63.0 KiB (0%)
  61. Language                                 : English
  62. Default                                  : Yes
  63. Forced                                   : No

  64. Menu
  65. 00:00:00.000                             : en:1
  66. 00:07:20.440                             : en:2
  67. 00:18:01.038                             : en:3
  68. 00:22:51.661                             : en:4
  69. 00:30:44.967                             : en:5
  70. 00:36:01.657                             : en:6
  71. 00:43:25.307                             : en:7
  72. 00:48:35.408                             : en:8
  73. 00:58:34.339                             : en:9
  74. 01:04:16.389                             : en:10
  75. 01:13:36.907                             : en:11
  76. 01:22:07.876                             : en:12
  77. 01:30:38.011                             : en:13
  78. 01:37:31.883                             : en:14
  79. 01:45:05.294                             : en:15
  80. 01:54:58.303                             : en:16
复制代码


精彩剧照




蓝光高清网提示您 点击下方附件名称 马上开始下载



温馨提示:
本站资源优先使用迅雷下载,迅雷会员下载,速度基本可以跑满宽带
如果遇到无资源或者版权问题无法下载,推荐使用115网盘离线下载(点击查看115网盘离线下载教程


  • 该资源需要您回复以后 刷新网页进行下载操作

  • 1、The.Public.2018.1080p.WEB-DL.DD5.1.H264-FGT.torrent 42KB 已下载 0 次

加入蓝光高清网VIP会员  无限制下载本站所有资源---点此加入

资源下载、资源播放、字幕使用、无法下载等常见问题---点这里

回复

使用道具 举报

精彩评论1

Kelvinip 发表于 2019-9-11 20:35:00 | 显示全部楼层
收藏了  谢谢

加入蓝光高清网VIP会员  无限制下载本站所有资源---点此加入

资源下载、资源播放、字幕使用、无法下载等常见问题---点这里

回复

使用道具 举报

懒得打字嘛,点击右侧快捷回复
高级模式
B Color Image Link Quote Code Smilies 上传

本版积分规则

关注0

粉丝0

帖子45736

发布主题
最新电影 论坛
广告位

Archiver手机版蓝光高清网 ( 渝ICP备18006373号-2 )|网站地图

Powered by Discuz! X3.4  © 2001-2013 Comsenz Inc.