[剧情片] 少年追梦情/青少年精神 Teen.Spirit.2018.1080p.WEB-DL.DD5.1.H264-FGT 3.26GB

[复制链接]
蓝鸟VIP会员 永久VIP 发表于 2019-9-11 20:35:00 | 显示全部楼层 |阅读模式 打印 上一主题 下一主题

马上注册,轻松下载,海量资源,让你轻松玩转社区。

您需要 登录 才可以下载或查看,没有帐号?立即注册

x


译  名 少年追梦情 / 青少年精神 / 魔力女声(台)
片  名 Teen Spirit
年  代 2019
产  地 美国 / 英国
类  别 剧情 / 音乐
语  言 英语
上映日期 2018-09-07(多伦多电影节) / 2019-04-19(美国)
IMDb评分  6.6/10 from 2627 users
IMDb链接  http://www.imdb.com/title/tt6483364
豆瓣评分 5.6/10 from 162 users
豆瓣链接 https://movie.douban.com/subject/26972952/
片  长 93分钟
导  演 麦克思·明格拉 Max Minghella
编  剧 麦克思·明格拉 Max Minghella
主  演 艾丽·范宁 Elle Fanning
      丽贝卡·豪尔 Rebecca Hall
      米莉·布拉迪 Millie Brady
      伊丽莎白·贝林顿 Elizabeth Berrington
      维克托里娅·菲斯 Viktorija Faith
      奥利维亚·格兰特 Olivia Grant
      克拉拉·卢嘉 Clara Rugaard
      扎特科·巴瑞克 Zlatko Buric
      鲁里·奥康纳 Ruairi O"Connor
      安东尼娅·克拉克 Antonia Clarke
      斯蒂芬·鲍克思 Stephen Boxer
      阿格涅兹卡·格罗乔斯卡 Agnieszka Grochowska
      蕾娅·斯密特洛维兹 Ria Zmitrowicz
      杰茜·维宁 Jessie Vinning
      保罗·布莱克维尔 Paul Blackwell
      马里乌斯·代·弗里斯 Marius De Vries
      布塔法·维塔 Buppha Wittaya
      丹尼尔·韦斯特伍德 Daniel Westwood
      博格纳·F·马丁 Begona F. Martin
      Mark Stobbart
      Archie Madekwe
      Glyn Angell


标  签 美国 | 音乐 | 青春 | MaxMinghella | ElleFanning | 艾丽·范宁 | 2019 | 欧美

简  介  

  影片讲述范宁扮演的一个来自欧洲小镇害羞女孩,梦想自己可以成为一名流行歌手,幸运的是在一个导师的帮助下,她逐渐接近了自己梦想。



该资源信息参数
  1. Video
  2. ID                                       : 1
  3. Format                                   : AVC
  4. Format/Info                              : Advanced Video Codec
  5. Format profile                           : <a href="/cdn-cgi/l/email-protection" class="__cf_email__" data-cfemail="5d15343a351d1169">[email protected]</a>
  6. Format settings                          : CABAC / 5 Ref Frames
  7. Format settings, CABAC                   : Yes
  8. Format settings, ReFrames                : 5 frames
  9. Codec ID                                 : V_MPEG4/ISO/AVC
  10. Duration                                 : 1 h 33 min
  11. Bit rate                                 : 4 604 kb/s
  12. Width                                    : 1 916 pixels
  13. Height                                   : 796 pixels
  14. Display aspect ratio                     : 2.40:1
  15. Frame rate mode                          : Constant
  16. Frame rate                               : 23.976 FPS
  17. Color space                              : YUV
  18. Chroma subsampling                       : 4:2:0
  19. Bit depth                                : 8 bits
  20. Scan type                                : Progressive
  21. Bits/(Pixel*Frame)                       : 0.126
  22. Stream size                              : 3.01 GiB (92%)
  23. Title                                    : Teen.Spirit.2018.1080p.WEB-DL.DD5.1.H264-FGT
  24. Language                                 : English
  25. Default                                  : Yes
  26. Forced                                   : No
  27. Color range                              : Limited
  28. Color primaries                          : BT.709
  29. Transfer characteristics                 : BT.709
  30. Matrix coefficients                      : BT.709

  31. Audio
  32. ID                                       : 2
  33. Format                                   : AC-3
  34. Format/Info                              : Audio Coding 3
  35. Commercial name                          : Dolby Digital
  36. Codec ID                                 : A_AC3
  37. Duration                                 : 1 h 33 min
  38. Bit rate mode                            : Constant
  39. Bit rate                                 : 384 kb/s
  40. Channel(s)                               : 6 channels
  41. Channel layout                           : L R C LFE Ls Rs
  42. Sampling rate                            : 48.0 kHz
  43. Frame rate                               : 31.250 FPS (1536 SPF)
  44. Bit depth                                : 16 bits
  45. Compression mode                         : Lossy
  46. Stream size                              : 257 MiB (8%)
  47. Title                                    : Teen.Spirit.2018.1080p.WEB-DL.DD5.1.H264-FGT
  48. Language                                 : English
  49. Service kind                             : Complete Main
  50. Default                                  : Yes
  51. Forced                                   : No

  52. Text
  53. ID                                       : 3
  54. Format                                   : UTF-8
  55. Codec ID                                 : S_TEXT/UTF8
  56. Codec ID/Info                            : UTF-8 Plain Text
  57. Duration                                 : 1 h 32 min
  58. Bit rate                                 : 54 b/s
  59. Count of elements                        : 1213
  60. Stream size                              : 37.0 KiB (0%)
  61. Language                                 : English
  62. Default                                  : Yes
  63. Forced                                   : No

  64. Menu
  65. 00:00:00.000                             : en:1
  66. 00:04:02.492                             : en:2
  67. 00:07:56.392                             : en:3
  68. 00:14:27.741                             : en:4
  69. 00:19:05.643                             : en:5
  70. 00:23:49.093                             : en:6
  71. 00:26:42.724                             : en:7
  72. 00:30:04.591                             : en:8
  73. 00:34:00.033                             : en:9
  74. 00:39:05.129                             : en:10
  75. 00:44:09.141                             : en:11
  76. 00:49:33.673                             : en:12
  77. 00:53:46.091                             : en:13
  78. 01:00:28.158                             : en:14
  79. 01:06:07.705                             : en:15
  80. 01:09:20.396                             : en:16
  81. 01:12:44.349                             : en:17
  82. 01:18:21.894                             : en:18
  83. 01:22:27.681                             : en:19
  84. 01:28:17.196                             : en:20
复制代码


精彩剧照




蓝光高清网提示您 点击下方附件名称 马上开始下载



温馨提示:
本站资源优先使用迅雷下载,迅雷会员下载,速度基本可以跑满宽带
如果遇到无资源或者版权问题无法下载,推荐使用115网盘离线下载(点击查看115网盘离线下载教程


  • 该资源需要您回复以后 刷新网页进行下载操作

  • 1、Teen.Spirit.2018.1080p.WEB-DL.DD5.1.H264-FGT.torrent 33KB 已下载 0 次

加入蓝光高清网VIP会员  无限制下载本站所有资源---点此加入

资源下载、资源播放、字幕使用、无法下载等常见问题---点这里

回复

使用道具 举报

懒得打字嘛,点击右侧快捷回复
高级模式
B Color Image Link Quote Code Smilies 上传

本版积分规则

关注0

粉丝0

帖子45743

发布主题
最新电影 论坛
广告位

Archiver手机版蓝光高清网 ( 渝ICP备18006373号-2 )|网站地图

Powered by Discuz! X3.4  © 2001-2013 Comsenz Inc.