[喜剧片] 罗伯特重生 Robert.Reborn.2019.1080p.WEB-DL.DD5.1.H264-FGT 2.82GB

[复制链接]
蓝鸟VIP会员 永久VIP 发表于 7 天前 | 显示全部楼层 |阅读模式 打印 上一主题 下一主题

马上注册,轻松下载,海量资源,让你轻松玩转社区。

您需要 登录 才可以下载或查看,没有帐号?立即注册

x


译  名 罗伯特重生
片  名 Robert Reborn
年  代 2019
产  地 美国
类  别 喜剧 / 惊悚
语  言 英语
上映日期 2019-06-24(英国)
IMDb评分  4.2/10 from 134 users
IMDb链接  http://www.imdb.com/title/tt8401820
豆瓣评分 0/10 from 0 users
豆瓣链接 https://movie.douban.com/subject/34454161/
片  长 85分钟
导  演 安德鲁·琼斯 Andrew Jones
编  剧 Andrew Jones
主  演 Dennis Farrin
      Rahel Kapsaski
      Lee Bane


标  签 美国 | 2019 | 烂片 | 恐怖 | 喜剧

简  介  

  In 1951 USSR, infamous killer doll Robert battles Stalin"s henchmen on board a plane.
随手翻译:1951年的苏联,臭名昭著的杀手玩偶罗伯特在飞机上与斯大林的追随者大开杀戒。



该资源信息参数
  1. Video
  2. ID                                       : 1
  3. Format                                   : AVC
  4. Format/Info                              : Advanced Video Codec
  5. Format profile                           : <a href="/cdn-cgi/l/email-protection" class="__cf_email__" data-cfemail="6028090708202c54">[email protected]</a>
  6. Format settings                          : CABAC / 5 Ref Frames
  7. Format settings, CABAC                   : Yes
  8. Format settings, ReFrames                : 5 frames
  9. Codec ID                                 : V_MPEG4/ISO/AVC
  10. Duration                                 : 1 h 21 min
  11. Bit rate                                 : 4 573 kb/s
  12. Width                                    : 1 920 pixels
  13. Height                                   : 802 pixels
  14. Display aspect ratio                     : 2.40:1
  15. Frame rate mode                          : Constant
  16. Frame rate                               : 23.976 FPS
  17. Color space                              : YUV
  18. Chroma subsampling                       : 4:2:0
  19. Bit depth                                : 8 bits
  20. Scan type                                : Progressive
  21. Bits/(Pixel*Frame)                       : 0.124
  22. Stream size                              : 2.60 GiB (92%)
  23. Title                                    : Robert.Reborn.2019.1080p.WEB-DL.DD5.1.H264-FGT
  24. Language                                 : English
  25. Default                                  : Yes
  26. Forced                                   : No
  27. Color range                              : Limited
  28. Color primaries                          : BT.709
  29. Transfer characteristics                 : BT.709
  30. Matrix coefficients                      : BT.709

  31. Audio
  32. ID                                       : 2
  33. Format                                   : AC-3
  34. Format/Info                              : Audio Coding 3
  35. Commercial name                          : Dolby Digital
  36. Codec ID                                 : A_AC3
  37. Duration                                 : 1 h 21 min
  38. Bit rate mode                            : Constant
  39. Bit rate                                 : 384 kb/s
  40. Channel(s)                               : 6 channels
  41. Channel layout                           : L R C LFE Ls Rs
  42. Sampling rate                            : 48.0 kHz
  43. Frame rate                               : 31.250 FPS (1536 SPF)
  44. Bit depth                                : 16 bits
  45. Compression mode                         : Lossy
  46. Stream size                              : 223 MiB (8%)
  47. Title                                    : Robert.Reborn.2019.1080p.WEB-DL.DD5.1.H264-FGT
  48. Language                                 : English
  49. Service kind                             : Complete Main
  50. Default                                  : Yes
  51. Forced                                   : No

  52. Text
  53. ID                                       : 3
  54. Format                                   : UTF-8
  55. Codec ID                                 : S_TEXT/UTF8
  56. Codec ID/Info                            : UTF-8 Plain Text
  57. Duration                                 : 1 h 15 min
  58. Bit rate                                 : 55 b/s
  59. Count of elements                        : 896
  60. Stream size                              : 30.7 KiB (0%)
  61. Language                                 : English
  62. Default                                  : Yes
  63. Forced                                   : No

  64. Menu
  65. 00:00:00.000                             : en:1
  66. 00:04:52.709                             : en:2
  67. 00:09:16.222                             : en:3
  68. 00:17:21.874                             : en:4
  69. 00:21:43.302                             : en:5
  70. 00:24:37.059                             : en:6
  71. 00:30:58.272                             : en:7
  72. 00:34:41.494                             : en:8
  73. 00:38:50.992                             : en:9
  74. 00:45:34.562                             : en:10
  75. 00:49:44.978                             : en:11
  76. 00:55:01.251                             : en:12
  77. 01:00:43.008                             : en:13
  78. 01:05:15.904                             : en:14
  79. 01:11:53.635                             : en:15
  80. 01:14:25.578                             : en:16
复制代码


精彩剧照




蓝光高清网提示您 点击下方附件名称 马上开始下载



温馨提示:
本站资源优先使用迅雷下载,迅雷会员下载,速度基本可以跑满宽带
如果遇到无资源或者版权问题无法下载,推荐使用115网盘离线下载(点击查看115网盘离线下载教程


  • 该资源需要您回复以后 刷新网页进行下载操作

  • 1、Robert.Reborn.2019.1080p.WEB-DL.DD5.1.H264-FGT.torrent 29KB 已下载 0 次

加入蓝光高清网VIP会员  无限制下载本站所有资源---点此加入

资源下载、资源播放、字幕使用、无法下载等常见问题---点这里

回复

使用道具 举报

懒得打字嘛,点击右侧快捷回复
高级模式
B Color Image Link Quote Code Smilies 上传

本版积分规则

关注0

粉丝0

帖子43723

发布主题
最新电影 论坛
广告位

Archiver手机版蓝光高清网 ( 渝ICP备18006373号-2 )|网站地图

Powered by Discuz! X3.4  © 2001-2013 Comsenz Inc.