[纪录片] 前卫爵士米尔福德 Milford.Graves.Full.Mantis.2018.1080p.WEBRip.x264-RARBG 1.77GB

[复制链接]
蓝鸟VIP会员 永久VIP 发表于 7 天前 | 显示全部楼层 |阅读模式 打印 上一主题 下一主题

马上注册,轻松下载,海量资源,让你轻松玩转社区。

您需要 登录 才可以下载或查看,没有帐号?立即注册

x


译  名 前卫爵士米尔福德
片  名 Milford Graves Full Mantis
年  代 2018
产  地 美国
类  别 纪录片
语  言 英语
上映日期 2018-07-13(美国)
IMDb评分  8.2/10 from 72 users
IMDb链接  http://www.imdb.com/title/tt8014482
豆瓣评分 0/10 from 0 users
豆瓣链接 https://movie.douban.com/subject/30274811/
片  长 91分钟
导  演 Jake Meginsky / 尼尔·杨 Neil Young
编  剧 Milford Graves / Jake Meginsky
主  演 Milford Graves


标  签 美国 | 纪录片 | 2018 | 音乐 | Documentary | 2010s

简  介  

  MILFORD GRAVES FULL MANTIS is a portrait of renowned percussionist Milford Graves, exploring his kaleidoscopic creativity and relentless curiosity.
"Milford Graves engages with our universe through contemplation and meditation where we coexist in a garden of timeless nature. Since the early 1960s he has struck a mythic figure in the lineage of New Thing/Free Jazz music and art. A theorist on rhythm defined by inherent emotional impulse (as opposed to a mechanism of strict repetition) he has consistently championed the idea that music is more than an art form to be mastered. In his world, sound is a life force to be in tune with, through regard and respect. With patience and a clear devotion to the beauty of the practice and performance of music, both spirit and earth-conscious, MILFORD GRAVES FULL MANTIS as directed by Jake Meginsky, and co-directed by Neil Young, both experimental musicians from Western Massachusetts, is a portrait of one of the most fascinating lights in the lineage of late 20th century music. It is a sonic-visual ode to the ineffable magic of inspired and gracious living." ---Thurston Moore
Graves has performed internationally since 1964, both as a soloist and in ensembles with such legends as Albert Ayler, Giuseppi Logan and Sonny Sharrock. He is widely considered to be a founding pioneer of avant-garde jazz, and he remains one of the most influential living figures in the evolution of the form.
The film draws the viewer through the artist"s lush garden and ornate home, into the martial arts dojo in his backyard and the laboratory in his basement - all of this just blocks from where he grew up in the housing projects for South Jamaica, Queens.
Graves tells stories of discovery, struggle and survival, ruminates on the essence of "swing," activates electronic stethoscopes in his basement lab to process the sound of his heart, and travels to Japan where he performs at a school for children with autism, igniting the student body into an ecstatic display of spontaneous collective energy.
Oscillating from present to past and weaving intimate glimpses of the artist"s complex cosmology with blistering performances from around the globe, MILFORD GRAVES FULL MANTIS is cinema full of fluidity, polyrhythm and intensity, embodying the essence of Graves" music itself.
A result of nearly 15 years of filming, MILFORD GRAVES FULL MANTIS is Directed by Jake Meginsky, a long time student of Milford Graves. Co-Directed by Neil Young.d



该资源信息参数
  1. Video
  2. ID                                       : 1
  3. Format                                   : AVC
  4. Format/Info                              : Advanced Video Codec
  5. Format profile                           : <a href="/cdn-cgi/l/email-protection" class="__cf_email__" data-cfemail="8fc7e6e8e7cfc3bba1be">[email protected]</a>
  6. Format settings                          : CABAC / 4 Ref Frames
  7. Format settings, CABAC                   : Yes
  8. Format settings, ReFrames                : 4 frames
  9. Codec ID                                 : avc1
  10. Codec ID/Info                            : Advanced Video Coding
  11. Duration                                 : 1 h 32 min
  12. Bit rate                                 : 2 500 kb/s
  13. Width                                    : 1 920 pixels
  14. Height                                   : 1 080 pixels
  15. Display aspect ratio                     : 16:9
  16. Frame rate mode                          : Constant
  17. Frame rate                               : 29.970 (29970/1000) FPS
  18. Color space                              : YUV
  19. Chroma subsampling                       : 4:2:0
  20. Bit depth                                : 8 bits
  21. Scan type                                : Progressive
  22. Bits/(Pixel*Frame)                       : 0.040
  23. Stream size                              : 1.62 GiB (91%)
  24. Writing library                          : x264 core 152 r2851M ba24899
  25. Encoding settings                        : cabac=1 / ref=4 / deblock=1:-1:-1 / analyse=0x3:0x113 / me=umh / subme=9 / psy=1 / psy_rd=1.00:0.15 / mixed_ref=1 / me_range=24 / chroma_me=1 / trellis=2 / 8x8dct=1 / cqm=0 / deadzone=21,11 / fast_pskip=1 / chroma_qp_offset=-3 / threads=16 / lookahead_threads=4 / sliced_threads=0 / nr=0 / decimate=1 / interlaced=0 / bluray_compat=0 / constrained_intra=0 / bframes=3 / b_pyramid=2 / b_adapt=2 / b_bias=0 / direct=3 / weightb=1 / open_gop=0 / weightp=2 / keyint=250 / keyint_min=25 / scenecut=40 / intra_refresh=0 / rc_lookahead=50 / rc=2pass / mbtree=1 / bitrate=2500 / ratetol=1.0 / qcomp=0.60 / qpmin=0 / qpmax=69 / qpstep=4 / cplxblur=20.0 / qblur=0.5 / vbv_maxrate=31250 / vbv_bufsize=31250 / nal_hrd=none / filler=0 / ip_ratio=1.40 / aq=3:1.00
  26. Encoded date                             : UTC 2019-07-07 20:33:27
  27. Tagged date                              : UTC 2019-07-07 20:33:27
  28. Codec configuration box                  : avcC

  29. Audio
  30. ID                                       : 2
  31. Format                                   : AAC LC
  32. Format/Info                              : Advanced Audio Codec Low Complexity
  33. Codec ID                                 : mp4a-40-2
  34. Duration                                 : 1 h 32 min
  35. Bit rate mode                            : Constant
  36. Bit rate                                 : 224 kb/s
  37. Channel(s)                               : 2 channels
  38. Channel layout                           : L R
  39. Sampling rate                            : 48.0 kHz
  40. Frame rate                               : 46.875 FPS (1024 SPF)
  41. Compression mode                         : Lossy
  42. Stream size                              : 149 MiB (8%)
  43. Language                                 : English
  44. Default                                  : Yes
  45. Alternate group                          : 1
  46. Encoded date                             : UTC 2019-07-07 20:33:27
  47. Tagged date                              : UTC 2019-07-07 20:33:27
复制代码


精彩剧照




蓝光高清网提示您 点击下方附件名称 马上开始下载



温馨提示:
本站资源优先使用迅雷下载,迅雷会员下载,速度基本可以跑满宽带
如果遇到无资源或者版权问题无法下载,推荐使用115网盘离线下载(点击查看115网盘离线下载教程


  • 该资源需要您回复以后 刷新网页进行下载操作

  • 1、Milford.Graves.Full.Mantis.2018.1080p.WEBRip.x264-RARBG.torrent 18KB 已下载 0 次

加入蓝光高清网VIP会员  无限制下载本站所有资源---点此加入

资源下载、资源播放、字幕使用、无法下载等常见问题---点这里

回复

使用道具 举报

懒得打字嘛,点击右侧快捷回复
高级模式
B Color Image Link Quote Code Smilies 上传

本版积分规则

关注0

粉丝0

帖子43687

发布主题
最新电影 论坛
广告位

Archiver手机版蓝光高清网 ( 渝ICP备18006373号-2 )|网站地图

Powered by Discuz! X3.4  © 2001-2013 Comsenz Inc.