[剧情片] 菊与断头台/菊花与断头台 The.Chrysanthemum.and.The.Guillotine.2018.JAPANESE.1080p.WEBRip.x264-RARBG 3.60GB

[复制链接]
蓝鸟VIP会员 永久VIP 发表于 2019-9-11 20:48:32 | 显示全部楼层 |阅读模式 打印 上一主题 下一主题

马上注册,轻松下载,海量资源,让你轻松玩转社区。

您需要 登录 才可以下载或查看,没有帐号?立即注册

x


译  名 菊与断头台 / 菊花与断头台
片  名 菊とギロチン -女相撲とアナキスト-
年  代 2018
产  地 日本
类  别 剧情 / 古装 / 运动
语  言 日语
上映日期 2018-07-07(日本)
IMDb评分  5.6/10 from 19 users
IMDb链接  http://www.imdb.com/title/tt6178388
豆瓣评分 0/10 from 0 users
豆瓣链接 https://movie.douban.com/subject/26703794/
片  长 189分钟
导  演 濑濑敬久 Takahisa Zeze
编  剧 相澤虎之助 Toranosuke Aizawa / 濑濑敬久 Takahisa Zeze
主  演 木龙麻生 Mai Kiry?
      东出昌大 Masahiro Higashide
      韩英惠 Hanae Kan
      宽一郎 Kan"ichiro Sato
      井浦新 ARATA
      涩川清彦 Kiyohiko Shibukawa
      山中崇 Takashi Yamanaka
      大西信满 SHIMA OHNISHI
      嘉门洋子 Y?ko Kamon
      大西礼芳 Ayaka Onishi
      山田真步 Maho Yamada
      岛田久作 Ky?saku Shimada
      菅田俊 Shun Sugata
      宇野祥平 Sh?hei Uno
      岭豪一 G?ichi Mine
      筱原笃 Atsushi Shinohara
      川濑阳太 Yohta Kawase
      永濑正敏 Masatoshi Nagase


标  签 日本 | 日本电影 | 2018 | 东出昌大 | 日影 | 电影 | 濑濑敬久 | 井浦新

简  介  

  故事讲述了一战后的大正时期,女相扑手和无政府主义青年之间发生的“时代物语,黑泽明&沟口健二时代的日本电影界元老马场正担任美术监修。

获奖情况  

  第61届日本电影蓝丝带奖(2019)
  年度十佳日本电影




该资源信息参数
  1. Video
  2. ID                                       : 1
  3. Format                                   : AVC
  4. Format/Info                              : Advanced Video Codec
  5. Format profile                           : <a href="/cdn-cgi/l/email-protection" class="__cf_email__" data-cfemail="a4eccdc3cce4e8908a95">[email protected]</a>
  6. Format settings                          : CABAC / 4 Ref Frames
  7. Format settings, CABAC                   : Yes
  8. Format settings, ReFrames                : 4 frames
  9. Codec ID                                 : avc1
  10. Codec ID/Info                            : Advanced Video Coding
  11. Duration                                 : 3 h 8 min
  12. Bit rate                                 : 2 500 kb/s
  13. Width                                    : 1 920 pixels
  14. Height                                   : 812 pixels
  15. Display aspect ratio                     : 2.35:1
  16. Frame rate mode                          : Constant
  17. Frame rate                               : 23.976 (23976/1000) FPS
  18. Color space                              : YUV
  19. Chroma subsampling                       : 4:2:0
  20. Bit depth                                : 8 bits
  21. Scan type                                : Progressive
  22. Bits/(Pixel*Frame)                       : 0.067
  23. Stream size                              : 3.30 GiB (92%)
  24. Writing library                          : x264 core 152 r2851M ba24899
  25. Encoding settings                        : cabac=1 / ref=4 / deblock=1:-1:-1 / analyse=0x3:0x113 / me=umh / subme=9 / psy=1 / psy_rd=1.00:0.15 / mixed_ref=1 / me_range=24 / chroma_me=1 / trellis=2 / 8x8dct=1 / cqm=0 / deadzone=21,11 / fast_pskip=1 / chroma_qp_offset=-3 / threads=16 / lookahead_threads=4 / sliced_threads=0 / nr=0 / decimate=1 / interlaced=0 / bluray_compat=0 / constrained_intra=0 / bframes=3 / b_pyramid=2 / b_adapt=2 / b_bias=0 / direct=3 / weightb=1 / open_gop=0 / weightp=2 / keyint=250 / keyint_min=25 / scenecut=40 / intra_refresh=0 / rc_lookahead=50 / rc=2pass / mbtree=1 / bitrate=2500 / ratetol=1.0 / qcomp=0.60 / qpmin=0 / qpmax=69 / qpstep=4 / cplxblur=20.0 / qblur=0.5 / vbv_maxrate=31250 / vbv_bufsize=31250 / nal_hrd=none / filler=0 / ip_ratio=1.40 / aq=3:1.00
  26. Encoded date                             : UTC 2019-07-07 13:01:58
  27. Tagged date                              : UTC 2019-07-07 13:01:58
  28. Codec configuration box                  : avcC

  29. Audio
  30. ID                                       : 2
  31. Format                                   : AAC LC
  32. Format/Info                              : Advanced Audio Codec Low Complexity
  33. Codec ID                                 : mp4a-40-2
  34. Duration                                 : 3 h 8 min
  35. Duration_LastFrame                       : -11 ms
  36. Bit rate mode                            : Constant
  37. Bit rate                                 : 224 kb/s
  38. Channel(s)                               : 6 channels
  39. Channel layout                           : C L R Ls Rs LFE
  40. Sampling rate                            : 48.0 kHz
  41. Frame rate                               : 46.875 FPS (1024 SPF)
  42. Compression mode                         : Lossy
  43. Stream size                              : 302 MiB (8%)
  44. Language                                 : Japanese
  45. Default                                  : Yes
  46. Alternate group                          : 1
  47. Encoded date                             : UTC 2019-07-07 13:01:58
  48. Tagged date                              : UTC 2019-07-07 13:01:58
复制代码


精彩剧照




蓝光高清网提示您 点击下方附件名称 马上开始下载



温馨提示:
本站资源优先使用迅雷下载,迅雷会员下载,速度基本可以跑满宽带
如果遇到无资源或者版权问题无法下载,推荐使用115网盘离线下载(点击查看115网盘离线下载教程


  • 该资源需要您回复以后 刷新网页进行下载操作

  • 1、The.Chrysanthemum.and.The.Guillotine.2018.JAPANESE.1080p.WEBRip.x264-RARBG.torrent 37KB 已下载 0 次

加入蓝光高清网VIP会员  无限制下载本站所有资源---点此加入

资源下载、资源播放、字幕使用、无法下载等常见问题---点这里

回复

使用道具 举报

懒得打字嘛,点击右侧快捷回复
高级模式
B Color Image Link Quote Code Smilies 上传

本版积分规则

关注0

粉丝0

帖子45738

发布主题
最新电影 论坛
广告位

Archiver手机版蓝光高清网 ( 渝ICP备18006373号-2 )|网站地图

Powered by Discuz! X3.4  © 2001-2013 Comsenz Inc.