[剧情片] 刀刃 SGaawaay.Kuuna.2018.720p.AMZN.WEBRip.DDP2.0.x264-NTG 3.49GB

[复制链接]
蓝鸟VIP会员 永久VIP 发表于 7 天前 | 显示全部楼层 |阅读模式 打印 上一主题 下一主题

马上注册,轻松下载,海量资源,让你轻松玩转社区。

您需要 登录 才可以下载或查看,没有帐号?立即注册

x


译  名 刀刃 / Edge of the Knife
片  名 SGaawaay K"uuna
年  代 2018
产  地 加拿大
类  别 剧情 / 历史
语  言 英语 / 海达语
上映日期 2018-09-07(多伦多电影节)
IMDb评分  7.0/10 from 92 users
IMDb链接  http://www.imdb.com/title/tt8947034
豆瓣评分 0/10 from 0 users
豆瓣链接 https://movie.douban.com/subject/30321921/
片  长 100分钟
导  演 格瓦伊·埃登肖 Gwaai Edenshaw / 海伦·黑格-布朗 Helen Haig-Brown
编  剧 Gwaai Edenshaw / Jaalen Edenshaw / Graham Richard / Leonie Sandercock
主  演 泰勒·约克 Tyler York
      Curtis Brown
      Diane Brown
      威利·罗斯 Willy Russ
      Greg Brown
      Toddi Lauren Brown
      Delores Churchill
      Zachary Collison
      Russel Davis
      Sam Derrick-York
      Sherri Dick


标  签 加拿大 | 2010s

简  介  

  Edge of the Knife is a feature length Haida language film about pride, tragedy, and penance. Adiits’ii, the lead character in the film, is mentally and physically pushed to the brink of survival and becomes Gaagiixiid/Gaagiid - the Haida Wildman. The Gaagiixiid is one of Haida’s most popular stories, sustained over the years though song and performance. This project is a community initiative with strong support from the Haida people as well as from the Council of the Haida Nation.

获奖情况  

  第18届温哥华影评人协会奖(2019)
  最佳加拿大电影(提名)
  加拿大电影最佳导演(提名) 格瓦伊·埃登肖 / 海伦·黑格-布朗
  加拿大电影最佳男主角(提名) 泰勒·约克
  加拿大电影最佳男配角(提名) 威利·罗斯
  不列颠哥伦比亚省最佳影片(提名)




该资源信息参数
  1. Video
  2. ID                                       : 1
  3. Format                                   : AVC
  4. Format/Info                              : Advanced Video Codec
  5. Format profile                           : <a href="/cdn-cgi/l/email-protection" class="__cf_email__" data-cfemail="97dffef0ffd7dba4b9a6">[email protected]</a>
  6. Format settings                          : CABAC / 4 Ref Frames
  7. Format settings, CABAC                   : Yes
  8. Format settings, ReFrames                : 4 frames
  9. Codec ID                                 : V_MPEG4/ISO/AVC
  10. Duration                                 : 1 h 40 min
  11. Bit rate mode                            : Constant
  12. Bit rate                                 : 4 729 kb/s
  13. Nominal bit rate                         : 6 000 kb/s
  14. Width                                    : 1 280 pixels
  15. Height                                   : 720 pixels
  16. Display aspect ratio                     : 16:9
  17. Frame rate mode                          : Constant
  18. Frame rate                               : 23.976 (24000/1001) FPS
  19. Color space                              : YUV
  20. Chroma subsampling                       : 4:2:0
  21. Bit depth                                : 8 bits
  22. Scan type                                : Progressive
  23. Bits/(Pixel*Frame)                       : 0.214
  24. Stream size                              : 3.33 GiB (95%)
  25. Default                                  : Yes
  26. Forced                                   : No
  27. Color range                              : Limited
  28. Color primaries                          : BT.709
  29. Transfer characteristics                 : BT.709
  30. Matrix coefficients                      : BT.709

  31. Audio
  32. ID                                       : 2
  33. Format                                   : E-AC-3
  34. Format/Info                              : Enhanced AC-3
  35. Commercial name                          : Dolby Digital Plus
  36. Codec ID                                 : A_EAC3
  37. Duration                                 : 1 h 40 min
  38. Bit rate mode                            : Constant
  39. Bit rate                                 : 224 kb/s
  40. Channel(s)                               : 2 channels
  41. Channel layout                           : L R
  42. Sampling rate                            : 48.0 kHz
  43. Frame rate                               : 31.250 FPS (1536 SPF)
  44. Compression mode                         : Lossy
  45. Stream size                              : 162 MiB (5%)
  46. Language                                 : English
  47. Service kind                             : Complete Main
  48. Default                                  : Yes
  49. Forced                                   : No

  50. Text #1
  51. ID                                       : 3
  52. Format                                   : UTF-8
  53. Codec ID                                 : S_TEXT/UTF8
  54. Codec ID/Info                            : UTF-8 Plain Text
  55. Duration                                 : 1 h 33 min
  56. Bit rate                                 : 7 b/s
  57. Count of elements                        : 219
  58. Stream size                              : 5.43 KiB (0%)
  59. Language                                 : English
  60. Default                                  : No
  61. Forced                                   : No

  62. Text #2
  63. ID                                       : 4
  64. Format                                   : UTF-8
  65. Codec ID                                 : S_TEXT/UTF8
  66. Codec ID/Info                            : UTF-8 Plain Text
  67. Duration                                 : 1 h 33 min
  68. Bit rate                                 : 8 b/s
  69. Count of elements                        : 219
  70. Stream size                              : 6.10 KiB (0%)
  71. Language                                 : German
  72. Default                                  : No
  73. Forced                                   : No

  74. Text #3
  75. ID                                       : 5
  76. Format                                   : UTF-8
  77. Codec ID                                 : S_TEXT/UTF8
  78. Codec ID/Info                            : UTF-8 Plain Text
  79. Duration                                 : 1 h 33 min
  80. Bit rate                                 : 8 b/s
  81. Count of elements                        : 216
  82. Stream size                              : 5.73 KiB (0%)
  83. Language                                 : Spanish
  84. Default                                  : No
  85. Forced                                   : No

  86. Text #4
  87. ID                                       : 6
  88. Format                                   : UTF-8
  89. Codec ID                                 : S_TEXT/UTF8
  90. Codec ID/Info                            : UTF-8 Plain Text
  91. Duration                                 : 1 h 33 min
  92. Bit rate                                 : 9 b/s
  93. Count of elements                        : 219
  94. Stream size                              : 6.16 KiB (0%)
  95. Language                                 : French
  96. Default                                  : No
  97. Forced                                   : No
复制代码


精彩剧照




蓝光高清网提示您 点击下方附件名称 马上开始下载



温馨提示:
本站资源优先使用迅雷下载,迅雷会员下载,速度基本可以跑满宽带
如果遇到无资源或者版权问题无法下载,推荐使用115网盘离线下载(点击查看115网盘离线下载教程


  • 该资源需要您回复以后 刷新网页进行下载操作

  • 1、SGaawaay.Kuuna.2018.720p.AMZN.WEBRip.DDP2.0.x264-NTG.torrent 35KB 已下载 0 次

加入蓝光高清网VIP会员  无限制下载本站所有资源---点此加入

资源下载、资源播放、字幕使用、无法下载等常见问题---点这里

回复

使用道具 举报

精彩评论1

流浪的红舞鞋 发表于 7 天前 | 显示全部楼层
学习了,谢谢分享、、、

加入蓝光高清网VIP会员  无限制下载本站所有资源---点此加入

资源下载、资源播放、字幕使用、无法下载等常见问题---点这里

回复

使用道具 举报

懒得打字嘛,点击右侧快捷回复
高级模式
B Color Image Link Quote Code Smilies 上传

本版积分规则

关注0

粉丝0

帖子43702

发布主题
最新电影 论坛
广告位

Archiver手机版蓝光高清网 ( 渝ICP备18006373号-2 )|网站地图

Powered by Discuz! X3.4  © 2001-2013 Comsenz Inc.