[剧情片] 失重 Weightless.2017.720p.AMZN.WEBRip.DDP5.1.x264-monkee 4.30GB

[复制链接]
蓝鸟VIP会员 永久VIP 发表于 2019-9-11 20:56:12 | 显示全部楼层 |阅读模式 打印 上一主题 下一主题

马上注册,轻松下载,海量资源,让你轻松玩转社区。

您需要 登录 才可以下载或查看,没有帐号?立即注册

x


译  名 失重
片  名 Weightless
年  代 2017
产  地 美国
类  别 剧情
语  言 英语
上映日期 2017-09-30(苏黎世电影节)
IMDb评分  7.2/10 from 56 users
IMDb链接  http://www.imdb.com/title/tt3745058
豆瓣评分 0/10 from 0 users
豆瓣链接 https://movie.douban.com/subject/25978965/
导  演 Jaron Albertin
编  剧 Jaron Albertin / Enda Walsh
主  演 希博汗·法隆 Siobhan Fallon
      约翰尼·诺克斯维尔 Johnny Knoxville
      亚历桑德罗·尼沃拉 Alessandro Nivola
      朱丽安妮·尼科尔森 Julianne Nicholson
      K·托德·弗里曼 K. Todd Freeman
      马克·门查卡 Marc Menchaca
      Matthew Miniero
      Sean Meehan
      William Hill
      Meryl Jones Williams
      Joey Rippo
      Christopher Jon Gombos


标  签 美国 | 剧情

简  介  

  暂无相关剧情介绍



该资源信息参数
  1. Video
  2. ID                                       : 1
  3. Format                                   : AVC
  4. Format/Info                              : Advanced Video Codec
  5. Format profile                           : <a href="/cdn-cgi/l/email-protection" class="__cf_email__" data-cfemail="5a12333d321a1669746b">[email protected]</a>
  6. Format settings                          : CABAC / 4 Ref Frames
  7. Format settings, CABAC                   : Yes
  8. Format settings, ReFrames                : 4 frames
  9. Codec ID                                 : V_MPEG4/ISO/AVC
  10. Duration                                 : 1 h 38 min
  11. Bit rate mode                            : Constant
  12. Bit rate                                 : 5 593 kb/s
  13. Nominal bit rate                         : 6 000 kb/s
  14. Width                                    : 1 248 pixels
  15. Height                                   : 520 pixels
  16. Display aspect ratio                     : 2.40:1
  17. Frame rate mode                          : Constant
  18. Frame rate                               : 23.976 (24000/1001) FPS
  19. Color space                              : YUV
  20. Chroma subsampling                       : 4:2:0
  21. Bit depth                                : 8 bits
  22. Scan type                                : Progressive
  23. Bits/(Pixel*Frame)                       : 0.359
  24. Stream size                              : 3.86 GiB (90%)
  25. Language                                 : English
  26. Default                                  : Yes
  27. Forced                                   : No
  28. Color range                              : Limited
  29. Color primaries                          : BT.709
  30. Transfer characteristics                 : BT.709
  31. Matrix coefficients                      : BT.709

  32. Audio
  33. ID                                       : 2
  34. Format                                   : E-AC-3
  35. Format/Info                              : Enhanced AC-3
  36. Commercial name                          : Dolby Digital Plus
  37. Codec ID                                 : A_EAC3
  38. Duration                                 : 1 h 38 min
  39. Bit rate mode                            : Constant
  40. Bit rate                                 : 640 kb/s
  41. Channel(s)                               : 6 channels
  42. Channel layout                           : L R C LFE Ls Rs
  43. Sampling rate                            : 48.0 kHz
  44. Frame rate                               : 31.250 FPS (1536 SPF)
  45. Compression mode                         : Lossy
  46. Stream size                              : 452 MiB (10%)
  47. Language                                 : English
  48. Service kind                             : Complete Main
  49. Default                                  : Yes
  50. Forced                                   : No

  51. Text #1
  52. ID                                       : 3
  53. Format                                   : UTF-8
  54. Codec ID                                 : S_TEXT/UTF8
  55. Codec ID/Info                            : UTF-8 Plain Text
  56. Duration                                 : 1 h 30 min
  57. Bit rate                                 : 26 b/s
  58. Count of elements                        : 656
  59. Stream size                              : 17.3 KiB (0%)
  60. Language                                 : English
  61. Default                                  : No
  62. Forced                                   : No

  63. Text #2
  64. ID                                       : 4
  65. Format                                   : UTF-8
  66. Codec ID                                 : S_TEXT/UTF8
  67. Codec ID/Info                            : UTF-8 Plain Text
  68. Duration                                 : 1 h 33 min
  69. Bit rate                                 : 28 b/s
  70. Count of elements                        : 754
  71. Stream size                              : 19.7 KiB (0%)
  72. Title                                    : SDH
  73. Language                                 : English
  74. Default                                  : No
  75. Forced                                   : No
复制代码


精彩剧照




蓝光高清网提示您 点击下方附件名称 马上开始下载



温馨提示:
本站资源优先使用迅雷下载,迅雷会员下载,速度基本可以跑满宽带
如果遇到无资源或者版权问题无法下载,推荐使用115网盘离线下载(点击查看115网盘离线下载教程


  • 该资源需要您回复以后 刷新网页进行下载操作

  • 1、Weightless.2017.720p.AMZN.WEBRip.DDP5.1.x264-monkee.torrent 44KB 已下载 0 次

加入蓝光高清网VIP会员  无限制下载本站所有资源---点此加入

资源下载、资源播放、字幕使用、无法下载等常见问题---点这里

回复

使用道具 举报

懒得打字嘛,点击右侧快捷回复
高级模式
B Color Image Link Quote Code Smilies 上传

本版积分规则

关注0

粉丝0

帖子45745

发布主题
最新电影 论坛
广告位

Archiver手机版蓝光高清网 ( 渝ICP备18006373号-2 )|网站地图

Powered by Discuz! X3.4  © 2001-2013 Comsenz Inc.