[剧情片] 火箭人/摇滚太空人 Rocketman.2019.1080p.KORSUB.HDRip.x264.AAC2.0-STUTTERSHIT 3.51GB

[复制链接]
蓝鸟VIP会员 永久VIP 发表于 2019-9-11 20:57:02 | 显示全部楼层 |阅读模式 打印 上一主题 下一主题

马上注册,轻松下载,海量资源,让你轻松玩转社区。

您需要 登录 才可以下载或查看,没有帐号?立即注册

x


译  名 火箭人 / 摇滚太空人(港) / 火箭客
片  名 Rocketman
年  代 2019
产  地 英国 / 美国
类  别 剧情 / 音乐 / 传记
语  言 英语
上映日期 2019-05-16(戛纳电影节) / 2019-05-22(英国) / 2019-05-31(美国)
IMDb评分  7.7/10 from 40740 users
IMDb链接  http://www.imdb.com/title/tt2066051
豆瓣评分 7.4/10 from 1546 users
豆瓣链接 https://movie.douban.com/subject/6895950/
片  长 121分钟
导  演 德克斯特·弗莱彻 Dexter Fletcher
编  剧 李·哈尔 Lee Hall
主  演 塔伦·埃格顿 Taron Egerton
      理查德·麦登 Richard Madden
      杰米·贝尔 Jamie Bell
      布莱丝·达拉斯·霍华德 Bryce Dallas Howard
      斯蒂文·麦金托什 Steven Mackintosh
      查理·罗 Charlie Rowe
      哈丽特·瓦尔特 Harriet Walter
      维克托里娅·菲斯 Viktorija Faith
      杰玛·琼斯 Gemma Jones
      汤姆·班尼特 Tom Bennett
      朱利安·费罗 Julian Ferro
      莱顿·威廉姆斯 Layton Williams
      基特·康纳 Kit Connor
      卡米尔·雷米泽斯基 Kamil Lemieszewski
      贝恩·科拉科 Bern Colla?o
      齐亚德·阿巴扎 Ziad Abaza
      伊斯雷尔·鲁兹 Israel Ruiz
      拉斯科·阿特金斯 Lasco Atkins
      格雷厄姆·弗莱彻-库克 Graham Fletcher-Cook
      史蒂威·戴维斯 Stevee Davies


标  签 传记 | 音乐 | 2019 | 英国 | 美国 | 剧情 | LGBT | 歌舞

简  介  

  由《飞跃奇蹟》导演戴克斯特佛莱契执导,《火箭人》是叙述英国国宝级歌手艾尔顿强爵士的故事,如何从英国皇家音乐学院的奇才,变成了流行音乐界的天王,当今乐坛的传奇人物。片名取自艾尔顿强经典名曲〈ROCKETMAN〉,泰隆艾格顿挑战华丽多变、大胆前卫的舞台造型,以及一边弹钢琴一边大展爆发力的歌喉,唱出一首首观众耳熟能详的动人歌曲,绝对是不能错过的音乐奇想电影。



该资源信息参数
  1. Video
  2. ID                                       : 1
  3. Format                                   : AVC
  4. Format/Info                              : Advanced Video Codec
  5. Format profile                           : <a href="/cdn-cgi/l/email-protection" class="__cf_email__" data-cfemail="a6eecfc1cee6ea928897">[email protected]</a>
  6. Format settings                          : CABAC / 4 Ref Frames
  7. Format settings, CABAC                   : Yes
  8. Format settings, ReFrames                : 4 frames
  9. Codec ID                                 : V_MPEG4/ISO/AVC
  10. Duration                                 : 2 h 0 min
  11. Bit rate                                 : 3 913 kb/s
  12. Width                                    : 1 920 pixels
  13. Height                                   : 800 pixels
  14. Display aspect ratio                     : 2.40:1
  15. Frame rate mode                          : Constant
  16. Frame rate                               : 23.976 (24000/1001) FPS
  17. Color space                              : YUV
  18. Chroma subsampling                       : 4:2:0
  19. Bit depth                                : 8 bits
  20. Scan type                                : Progressive
  21. Bits/(Pixel*Frame)                       : 0.106
  22. Stream size                              : 3.29 GiB (94%)
  23. Title                                    : Rocketman.2019.1080p.KORSUB.HDRip.x264.AAC2.0-STUTTERSHIT
  24. Language                                 : English
  25. Default                                  : Yes
  26. Forced                                   : No
  27. Color range                              : Limited
  28. Color primaries                          : BT.709
  29. Transfer characteristics                 : BT.709
  30. Matrix coefficients                      : BT.709

  31. Audio
  32. ID                                       : 2
  33. Format                                   : AAC LC
  34. Format/Info                              : Advanced Audio Codec Low Complexity
  35. Codec ID                                 : A_AAC-2
  36. Duration                                 : 2 h 0 min
  37. Bit rate                                 : 256 kb/s
  38. Channel(s)                               : 2 channels
  39. Channel layout                           : L R
  40. Sampling rate                            : 48.0 kHz
  41. Frame rate                               : 46.875 FPS (1024 SPF)
  42. Compression mode                         : Lossy
  43. Delay relative to video                  : 17 ms
  44. Stream size                              : 220 MiB (6%)
  45. Title                                    : Rocketman.2019.1080p.KORSUB.HDRip.x264.AAC2.0-STUTTERSHIT
  46. Language                                 : English
  47. Default                                  : Yes
  48. Forced                                   : No
复制代码


精彩剧照




蓝光高清网提示您 点击下方附件名称 马上开始下载



温馨提示:
本站资源优先使用迅雷下载,迅雷会员下载,速度基本可以跑满宽带
如果遇到无资源或者版权问题无法下载,推荐使用115网盘离线下载(点击查看115网盘离线下载教程


  • 该资源需要您回复以后 刷新网页进行下载操作

  • 1、Rocketman.2019.1080p.KORSUB.HDRip.x264.AAC2.0-STUTTERSHIT.torrent 36KB 已下载 0 次

加入蓝光高清网VIP会员  无限制下载本站所有资源---点此加入

资源下载、资源播放、字幕使用、无法下载等常见问题---点这里

回复

使用道具 举报

懒得打字嘛,点击右侧快捷回复
高级模式
B Color Image Link Quote Code Smilies 上传

本版积分规则

关注0

粉丝0

帖子45738

发布主题
最新电影 论坛
广告位

Archiver手机版蓝光高清网 ( 渝ICP备18006373号-2 )|网站地图

Powered by Discuz! X3.4  © 2001-2013 Comsenz Inc.