[奇幻片] 地狱男爵:血皇后崛起 Hellboy.2019.1080p.KORSUB.HDRip.x264.AAC2.0-STUTTERSHIT 5.29GB

[复制链接]
蓝鸟VIP会员 永久VIP 发表于 2019-9-11 20:57:52 | 显示全部楼层 |阅读模式 打印 上一主题 下一主题

马上注册,轻松下载,海量资源,让你轻松玩转社区。

您需要 登录 才可以下载或查看,没有帐号?立即注册

x


译  名 地狱男爵:血皇后崛起 / Hellboy - Call of Darkness / Hellboy: Rise of the Blood Queen / 地狱怪客:血后的崛起(台)
片  名 Hellboy
年  代 2019
产  地 美国
类  别 动作 / 奇幻 / 冒险
语  言 英语
上映日期 2019-04-12(美国)
IMDb评分  5.3/10 from 22655 users
IMDb链接  http://www.imdb.com/title/tt2274648
豆瓣评分 6.1/10 from 4880 users
豆瓣链接 https://movie.douban.com/subject/24750460/
片  长 120分钟
导  演 尼尔·马歇尔 Neil Marshall
编  剧 安德鲁·考斯比 Andrew Cosby / 迈克·米格诺拉 Mike Mignola
主  演 大卫·哈伯 David Harbour
      米拉·乔沃维奇 Milla Jovovich
      金大贤 Daniel Dae Kim
      伊恩·麦柯肖恩 Ian McShane
      阿利斯泰·皮垂 Alistair Petrie
      萨莎·莱恩 Sasha Lane
      托马斯·哈登·丘奇 Thomas Haden Church
      佩内洛普·米契尔 Penelope Mitchell
      苏菲·奥康内多 Sophie Okonedo
      布莱恩·格里森 Brian Gleeson
      克里斯蒂娜·克莱伯 Kristina Klebe
      阿什丽·艾德纳 Ashley Edner
      道格拉斯·泰特 Douglas Tait
      贝恩·科拉科 Bern Colla?o
      阿塔纳斯·斯雷布雷夫 Atanas Srebrev
      凡妮莎·艾科尔兹 Vanessa Eichholz
      莱拉·莫尔斯 Laila Morse


标  签 奇幻 | 美国 | 漫画改编 | 2019 | 地狱男爵 | 动作 | 科幻 | 漫画英雄

简  介  

  地狱男爵是二战期间被纳粹召唤到人间的恶魔之子,在被布鲁姆教授收养长大后逐渐学会了融入人类世界,成为了一名超自然力量调查员,然而一起关于末世的预言,令他陷入重重危机。与此同时,史上最强大的邪恶女巫血皇后正企图打破封印重返人间,并让瘟疫席卷地球。地狱男爵与通灵少女爱丽丝以及上校本·戴米奥,因此共同踏上了阻止血皇后的征程。



该资源信息参数
  1. Video
  2. ID                                       : 1
  3. Format                                   : AVC
  4. Format/Info                              : Advanced Video Codec
  5. Format profile                           : <a href="/cdn-cgi/l/email-protection" class="__cf_email__" data-cfemail="b6f4d7c5d3dadfd8d3f6fa829887">[email protected]</a>
  6. Format settings                          : 1 Ref Frames
  7. Format settings, CABAC                   : No
  8. Format settings, ReFrames                : 1 frame
  9. Codec ID                                 : V_MPEG4/ISO/AVC
  10. Duration                                 : 2 h 0 min
  11. Bit rate                                 : 6 000 kb/s
  12. Width                                    : 1 920 pixels
  13. Height                                   : 804 pixels
  14. Display aspect ratio                     : 2.40:1
  15. Frame rate mode                          : Constant
  16. Frame rate                               : 29.970 (30000/1001) FPS
  17. Color space                              : YUV
  18. Chroma subsampling                       : 4:2:0
  19. Bit depth                                : 8 bits
  20. Scan type                                : Progressive
  21. Bits/(Pixel*Frame)                       : 0.130
  22. Stream size                              : 5.07 GiB (96%)
  23. Title                                    : Hellboy.2019.1080p.KORSUB.HDRip.x264.AAC2.0-STUTTERSHIT
  24. Writing library                          : x264 core 155 r2901 7d0ff22
  25. Encoding settings                        : cabac=0 / ref=1 / deblock=0:-1:-1 / analyse=0:0 / me=dia / subme=0 / psy=1 / psy_rd=1.00:0.15 / mixed_ref=0 / me_range=16 / chroma_me=1 / trellis=1 / 8x8dct=0 / cqm=0 / deadzone=21,11 / fast_pskip=1 / chroma_qp_offset=-1 / threads=90 / lookahead_threads=6 / sliced_threads=0 / nr=0 / decimate=1 / interlaced=0 / bluray_compat=0 / constrained_intra=0 / bframes=0 / weightp=0 / keyint=250 / keyint_min=25 / scenecut=0 / intra_refresh=0 / rc=abr / mbtree=0 / bitrate=6000 / ratetol=1.0 / qcomp=0.60 / qpmin=0 / qpmax=69 / qpstep=4 / ip_ratio=1.40 / aq=0
  26. Language                                 : English
  27. Default                                  : Yes
  28. Forced                                   : No

  29. Audio
  30. ID                                       : 2
  31. Format                                   : AAC LC
  32. Format/Info                              : Advanced Audio Codec Low Complexity
  33. Codec ID                                 : A_AAC-2
  34. Duration                                 : 2 h 0 min
  35. Bit rate                                 : 256 kb/s
  36. Channel(s)                               : 2 channels
  37. Channel layout                           : L R
  38. Sampling rate                            : 48.0 kHz
  39. Frame rate                               : 46.875 FPS (1024 SPF)
  40. Compression mode                         : Lossy
  41. Stream size                              : 221 MiB (4%)
  42. Title                                    : Hellboy.2019.1080p.KORSUB.HDRip.x264.AAC2.0-STUTTERSHIT
  43. Language                                 : English
  44. Default                                  : Yes
  45. Forced                                   : No
复制代码


精彩剧照




蓝光高清网提示您 点击下方附件名称 马上开始下载



温馨提示:
本站资源优先使用迅雷下载,迅雷会员下载,速度基本可以跑满宽带
如果遇到无资源或者版权问题无法下载,推荐使用115网盘离线下载(点击查看115网盘离线下载教程


  • 该资源需要您回复以后 刷新网页进行下载操作

  • 1、Hellboy.2019.1080p.KORSUB.HDRip.x264.AAC2.0-STUTTERSHIT.torrent 27KB 已下载 0 次

加入蓝光高清网VIP会员  无限制下载本站所有资源---点此加入

资源下载、资源播放、字幕使用、无法下载等常见问题---点这里

回复

使用道具 举报

精彩评论1

feiyuchongtian 发表于 2019-9-11 21:05:22 | 显示全部楼层
刷一波高清币,嘿嘿

加入蓝光高清网VIP会员  无限制下载本站所有资源---点此加入

资源下载、资源播放、字幕使用、无法下载等常见问题---点这里

回复

使用道具 举报

懒得打字嘛,点击右侧快捷回复
高级模式
B Color Image Link Quote Code Smilies 上传

本版积分规则

关注0

粉丝0

帖子45743

发布主题
最新电影 论坛
广告位

Archiver手机版蓝光高清网 ( 渝ICP备18006373号-2 )|网站地图

Powered by Discuz! X3.4  © 2001-2013 Comsenz Inc.