[科幻片] 阿丽塔:战斗天使/艾莉塔:战斗天使[外挂中字] Alita.Battle.Angel.2019.1080p.WEB-DL.DD5.1.H264-FGT 4.20GB

[复制链接]
蓝鸟VIP会员 永久VIP 发表于 7 天前 | 显示全部楼层 |阅读模式 打印 上一主题 下一主题

马上注册,轻松下载,海量资源,让你轻松玩转社区。

您需要 登录 才可以下载或查看,没有帐号?立即注册

x


译  名 阿丽塔:战斗天使 / 艾莉塔:战斗天使(台) / 铳梦 / 铳梦:战斗天使(港)
片  名 Alita: Battle Angel
年  代 2019
产  地 美国 / 加拿大 / 阿根廷
类  别 动作 / 科幻 / 冒险
语  言 英语 / 西班牙语
上映日期 2019-02-05(台湾) / 2019-02-14(美国) / 2019-02-22(中国大陆)
IMDb评分7.5/10 from 102771 users
IMDb链接http://www.imdb.com/title/tt0437086
豆瓣评分 7.6/10 from 343930 users
豆瓣链接 https://movie.douban.com/subject/1652592/
片  长 122分钟
导  演 罗伯特·罗德里格兹 Robert Rodriguez
编  剧 詹姆斯·卡梅隆 James Cameron / 莱塔·卡罗格里迪斯 Laeta Kalogridis / 木城幸人 Yukito Kishiro
主  演 罗莎·萨拉查 Rosa Salazar
      克里斯托弗·沃尔兹 Christoph Waltz
      基恩·约翰逊 Keean Johnson
      艾德·斯克林 Ed Skrein
      马赫沙拉·阿里 Mahershala Ali
      詹妮弗·康纳利 Jennifer Connelly
      杰基·厄尔·哈利 Jackie Earle Haley
      陈东兰 Lana Condor
      小豪尔赫·兰登伯格 Jorge Lendeborg Jr.
      艾莎·冈萨雷斯 Eiza González
      卡斯帕·凡·迪恩 Casper Van Dien
      米歇尔·罗德里格兹 Michelle Rodriguez
      爱德华·诺顿 Edward Norton
      杰夫·法赫 Jeff Fahey
      山姆·麦地那 Sam Medina
      德里克·梅耶斯 Derek Mears
      艾丽·拉蒙特 Elle LaMont
      豪尔赫·A·希门尼斯 Jorge A. Jimenez
      马克·扎罗 Marko Zaror
      比利·布莱尔 Billy Blair
      伦纳德·吴 Leonard Wu
      特里斯坦·里格斯 Tristan Riggs
      迈克尔·洛夫·托利弗 Michael Love Toliver
      金 King
      达塞尔·丹妮尔 Darcel Danielle
      Mark A. White


标  签 科幻 | 机器人 | 动作 | 漫画改编 | 美国 | 赛博朋克 | 2019 | 动画

简  介

  故事发生在遥远的26世纪,外科医生依德(克里斯托弗·瓦尔兹 Christoph Waltz 饰)在垃圾场里捡到了只剩下头部的机械少女将她带回家中,给她装上了本来为自己已故的女儿所准备的义体,并取名阿丽塔(罗莎·萨拉扎尔 Rosa Salazar 饰)。苏醒后的阿丽塔对这个五彩斑斓但却暴力而又残酷的世界产生了浓厚的兴趣,在结识了青年雨果(基恩·约翰逊 Keean Johnson 饰)后,阿丽塔开始接触名为机动球的运动,并在比赛中展现出了惊人的格斗天赋。
在废铁城居民们的头顶,漂浮着巨大的浮空城市撒冷,废铁城居民们的一切劳作和付出,都是为了给撒冷提供继续运作的燃料。在大财阀维克特(马赫沙拉·阿里 Mahershala Ali 饰)所设立的机动球比赛中,最终获得冠军的人能够获得前往撒冷生活的资格,阿丽塔决定利用自己的格斗天赋参加比赛,却被卷入了一个巨大的阴谋之中。

获奖情况

  第5届豆瓣电影年度榜单(2018)
  最值得期待的外语电影(提名)

  第4届豆瓣电影年度榜单(2017)
  最值得期待的外语电影(提名)




该资源信息参数

  1. Video
  2. ID             : 1
  3. Format           : AVC
  4. Format/Info          : Advanced Video Codec
  5. Format profile         : <a href="/cdn-cgi/l/email-protection" class="__cf_email__" data-cfemail="4b03222c230b077f">[email protected]</a>
  6. Format settings        : CABAC / 5 Ref Frames
  7. Format settings, CABAC       : Yes
  8. Format settings, ReFrames      : 5 frames
  9. Codec ID           : V_MPEG4/ISO/AVC
  10. Duration           : 2 h 2 min
  11. Bit rate           : 4 537 kb/s
  12. Width            : 1 920 pixels
  13. Height           : 804 pixels
  14. Display aspect ratio       : 2.40:1
  15. Frame rate mode        : Constant
  16. Frame rate           : 23.976 FPS
  17. Color space          : YUV
  18. Chroma subsampling       : 4:2:0
  19. Bit depth          : 8 bits
  20. Scan type          : Progressive
  21. Bits/(Pixel*Frame)       : 0.123
  22. Stream size          : 3.87 GiB (92%)
  23. Language           : English
  24. Default            : Yes
  25. Forced           : No
  26. Color range          : Limited
  27. Color primaries        : BT.709
  28. Transfer characteristics     : BT.709
  29. Matrix coefficients        : BT.709

  30. Audio
  31. ID             : 2
  32. Format           : AC-3
  33. Format/Info          : Audio Coding 3
  34. Commercial name        : Dolby Digital
  35. Codec ID           : A_AC3
  36. Duration           : 2 h 1 min
  37. Bit rate mode          : Constant
  38. Bit rate           : 384 kb/s
  39. Channel(s)           : 6 channels
  40. Channel layout         : L R C LFE Ls Rs
  41. Sampling rate          : 48.0 kHz
  42. Frame rate           : 31.250 FPS (1536 SPF)
  43. Bit depth          : 16 bits
  44. Compression mode         : Lossy
  45. Stream size          : 335 MiB (8%)
  46. Language           : English
  47. Service kind         : Complete Main
  48. Default            : Yes
  49. Forced           : No

  50. Text #1
  51. ID             : 3
  52. Format           : UTF-8
  53. Codec ID           : S_TEXT/UTF8
  54. Codec ID/Info          : UTF-8 Plain Text
  55. Duration           : 1 h 55 min
  56. Bit rate           : 41 b/s
  57. Count of elements        : 1347
  58. Stream size          : 34.9 KiB (0%)
  59. Language           : English
  60. Default            : Yes
  61. Forced           : No

  62. Text #2
  63. ID             : 4
  64. Format           : UTF-8
  65. Codec ID           : S_TEXT/UTF8
  66. Codec ID/Info          : UTF-8 Plain Text
  67. Duration           : 1 h 55 min
  68. Bit rate           : 46 b/s
  69. Count of elements        : 1588
  70. Stream size          : 39.4 KiB (0%)
  71. Title            : SDH
  72. Language           : English
  73. Default            : No
  74. Forced           : No

  75. Menu
  76. 00:00:00.000         : en:Chapter 01
  77. 00:03:29.626         : en:Chapter 02
  78. 00:07:52.680         : en:Chapter 03
  79. 00:10:08.982         : en:Chapter 04
  80. 00:13:07.702         : en:Chapter 05
  81. 00:15:07.738         : en:Chapter 06
  82. 00:18:05.539         : en:Chapter 07
  83. 00:22:59.707         : en:Chapter 08
  84. 00:25:36.321         : en:Chapter 09
  85. 00:31:41.893         : en:Chapter 10
  86. 00:33:30.209         : en:Chapter 11
  87. 00:36:33.809         : en:Chapter 12
  88. 00:38:31.885         : en:Chapter 13
  89. 00:42:06.473         : en:Chapter 14
  90. 00:45:59.204         : en:Chapter 15
  91. 00:48:32.439         : en:Chapter 16
  92. 00:52:57.995         : en:Chapter 17
  93. 00:55:15.339         : en:Chapter 18
  94. 01:00:40.746         : en:Chapter 19
  95. 01:02:57.548         : en:Chapter 20
  96. 01:05:17.770         : en:Chapter 21
  97. 01:10:51.477         : en:Chapter 22
  98. 01:13:38.268         : en:Chapter 23
  99. 01:16:36.194         : en:Chapter 24
  100. 01:18:53.205         : en:Chapter 25
  101. 01:22:49.274         : en:Chapter 26
  102. 01:24:56.316         : en:Chapter 27
  103. 01:28:26.192         : en:Chapter 28
  104. 01:33:19.527         : en:Chapter 29
  105. 01:36:09.738         : en:Chapter 30
  106. 01:41:55.667         : en:Chapter 31
  107. 01:45:24.417         : en:Chapter 32
  108. 01:48:17.464         : en:Chapter 33
  109. 01:51:44.628         : en:Chapter 34
  110. 01:54:44.640         : en:Chapter 35
  111. 01:56:52.476         : en:Chapter 36
复制代码




精彩剧照



蓝光高清网提示您 点击下方附件名称 马上开始下载





温馨提示:
本站资源优先使用迅雷下载,迅雷会员下载,速度基本可以跑满宽带
如果遇到无资源或者版权问题无法下载,推荐使用115网盘离线下载(点击查看115网盘离线下载教程


  • 该资源需要您回复以后 刷新网页进行下载操作

  • 1、[中字]Alita.Battle.Angel.2019.1080p.WEB-DL.DD5.1.H264-FGT.ass 183KB 已下载 0 次
  • 2、Alita.Battle.Angel.2019.1080p.WEB-DL.DD5.1.H264-FGT.torrent 43KB 已下载 0 次

加入蓝光高清网VIP会员  无限制下载本站所有资源---点此加入

资源下载、资源播放、字幕使用、无法下载等常见问题---点这里

回复

使用道具 举报

懒得打字嘛,点击右侧快捷回复
高级模式
B Color Image Link Quote Code Smilies 上传

本版积分规则

关注0

粉丝0

帖子43711

发布主题
最新电影 论坛
广告位

Archiver手机版蓝光高清网 ( 渝ICP备18006373号-2 )|网站地图

Powered by Discuz! X3.4  © 2001-2013 Comsenz Inc.