[喜剧片] 女足小将 Back.Of.The.Net.2019.1080p.WEB-DL.DD5.1.H264-FGT 3.32GB

[复制链接]
蓝鸟VIP会员 永久VIP 发表于 2019-9-11 21:17:46 | 显示全部楼层 |阅读模式 打印 上一主题 下一主题

马上注册,轻松下载,海量资源,让你轻松玩转社区。

您需要 登录 才可以下载或查看,没有帐号?立即注册

x


译  名 女足小将
片  名 Back of the Net
年  代 2019
产  地 澳大利亚
类  别 喜剧 / 爱情
上映日期 2019-04-11(澳大利亚)
IMDb评分  6.2/10 from 66 users
IMDb链接  http://www.imdb.com/title/tt8211214
豆瓣评分 0/10 from 0 users
豆瓣链接 https://movie.douban.com/subject/34461598/
片  长 98分钟
导  演 Louise Alston
编  剧 Alison Spuck McNeeley / Casie Tabanou
主  演 索菲亚·怀利  Sofia Wylie
      克里斯托弗·卡比 Christopher Kirby
      Melissa Bonne


简  介  

  A new student at a soccer academy is determined to beat her rival"s team in the national tournament.



该资源信息参数
  1. Video
  2. ID                                       : 1
  3. Format                                   : AVC
  4. Format/Info                              : Advanced Video Codec
  5. Format profile                           : <a href="/cdn-cgi/l/email-protection" class="__cf_email__" data-cfemail="8fc7e6e8e7cfc3bb">[email protected]</a>
  6. Format settings                          : CABAC / 4 Ref Frames
  7. Format settings, CABAC                   : Yes
  8. Format settings, Reference frames        : 4 frames
  9. Format settings, GOP                     : N=1
  10. Codec ID                                 : V_MPEG4/ISO/AVC
  11. Duration                                 : 1 h 26 min
  12. Bit rate                                 : 5 121 kb/s
  13. Width                                    : 1 920 pixels
  14. Height                                   : 1 080 pixels
  15. Display aspect ratio                     : 16:9
  16. Frame rate mode                          : Constant
  17. Frame rate                               : 23.976 (24000/1001) FPS
  18. Color space                              : YUV
  19. Chroma subsampling                       : 4:2:0
  20. Bit depth                                : 8 bits
  21. Scan type                                : Progressive
  22. Bits/(Pixel*Frame)                       : 0.103
  23. Stream size                              : 3.08 GiB (93%)
  24. Title                                    : Back.Of.The.Net.2019.1080p.WEB-DL.DD5.1.H264-FGT
  25. Language                                 : English
  26. Default                                  : Yes
  27. Forced                                   : No
  28. Color range                              : Limited
  29. Color primaries                          : BT.709
  30. Transfer characteristics                 : BT.709
  31. Matrix coefficients                      : BT.709

  32. Audio
  33. ID                                       : 2
  34. Format                                   : AC-3
  35. Format/Info                              : Audio Coding 3
  36. Commercial name                          : Dolby Digital
  37. Codec ID                                 : A_AC3
  38. Duration                                 : 1 h 26 min
  39. Bit rate mode                            : Constant
  40. Bit rate                                 : 384 kb/s
  41. Channel(s)                               : 6 channels
  42. Channel layout                           : L R C LFE Ls Rs
  43. Sampling rate                            : 48.0 kHz
  44. Frame rate                               : 31.250 FPS (1536 SPF)
  45. Bit depth                                : 16 bits
  46. Compression mode                         : Lossy
  47. Stream size                              : 237 MiB (7%)
  48. Title                                    : Back.Of.The.Net.2019.1080p.WEB-DL.DD5.1.H264-FGT
  49. Language                                 : English
  50. Service kind                             : Complete Main
  51. Default                                  : Yes
  52. Forced                                   : No

  53. Text
  54. ID                                       : 3
  55. Format                                   : UTF-8
  56. Codec ID                                 : S_TEXT/UTF8
  57. Codec ID/Info                            : UTF-8 Plain Text
  58. Duration                                 : 1 h 23 min
  59. Bit rate                                 : 102 b/s
  60. Count of elements                        : 1730
  61. Stream size                              : 62.9 KiB (0%)
  62. Language                                 : English
  63. Default                                  : Yes
  64. Forced                                   : No

  65. Menu
  66. 00:00:00.000                             : en:Chapter 1
  67. 00:09:55.595                             : en:Chapter 2
  68. 00:20:41.240                             : en:Chapter 3
  69. 00:30:45.844                             : en:Chapter 4
  70. 00:41:36.494                             : en:Chapter 5
  71. 00:50:34.030                             : en:Chapter 6
  72. 01:00:43.638                             : en:Chapter 7
  73. 01:10:20.214                             : en:Chapter 8
  74. 01:18:46.720                             : en:Chapter 9
  75. 01:22:52.966                             : en:Chapter 10
复制代码


精彩剧照




蓝光高清网提示您 点击下方附件名称 马上开始下载



温馨提示:
本站资源优先使用迅雷下载,迅雷会员下载,速度基本可以跑满宽带
如果遇到无资源或者版权问题无法下载,推荐使用115网盘离线下载(点击查看115网盘离线下载教程


  • 该资源需要您回复以后 刷新网页进行下载操作

  • 1、Back.Of.The.Net.2019.1080p.WEB-DL.DD5.1.H264-FGT.torrent 34KB 已下载 0 次

加入蓝光高清网VIP会员  无限制下载本站所有资源---点此加入

资源下载、资源播放、字幕使用、无法下载等常见问题---点这里

回复

使用道具 举报

懒得打字嘛,点击右侧快捷回复
高级模式
B Color Image Link Quote Code Smilies 上传

本版积分规则

关注0

粉丝0

帖子45738

发布主题
最新电影 论坛
广告位

Archiver手机版蓝光高清网 ( 渝ICP备18006373号-2 )|网站地图

Powered by Discuz! X3.4  © 2001-2013 Comsenz Inc.