[喜剧片] 当女人真好/关于亚当 About.Adam.2000.1080p.AMZN.WEBRip.DD5.1.x264-monkee 6.99GB

[复制链接]
蓝鸟VIP会员 永久VIP 发表于 2019-9-11 21:18:36 | 显示全部楼层 |阅读模式 打印 上一主题 下一主题

马上注册,轻松下载,海量资源,让你轻松玩转社区。

您需要 登录 才可以下载或查看,没有帐号?立即注册

x


译  名 当女人真好 / 关于亚当 / 引郎入室
片  名 About Adam
年  代 2000
产  地 爱尔兰 / 英国 / 美国
类  别 喜剧 / 爱情
语  言 英语
上映日期 2000-01-28
IMDb评分  5.9/10 from 6173 users
IMDb链接  http://www.imdb.com/title/tt0199314
豆瓣评分 6.3/10 from 200 users
豆瓣链接 https://movie.douban.com/subject/1306448/
片  长 Argentina: 98 分钟
导  演 Gerard Stembridge
编  剧 Gerard Stembridge
主  演 Kate Hudson
      Frances O"Connor
      Tommy Tiernan


标  签 爱情 | 英国 | 喜剧 | 英国电影 | 爱尔兰 | KateHudson | 剧情 | 2000

简  介  

  年轻漂亮的露西·欧文斯是都柏林一家时髦小餐馆的女招待,虽然 有过超过一打以上的的恋爱经历,却没有一次能顺顺当当维持下去。露 西把失败归咎于运气不济:现如今,找了好男人可不是件容易事。
然而有一天,餐馆里来了一位外型出众的青年男士。他一下子就吸引住了露西的视线,这个英俊挺拔的男人叫亚当。他略带几分孩子气,但又在不经意间散发着一种让露西为之着迷的气质,看上去,他正是露西一直在期盼的理想恋人。
一来二去的攀谈使两人很快就熟络起来,亚当似乎也对露西很有好感,这对年轻男女的感情发展神速,没多久就打的火热。于是,露西想把亚当介绍给她的家人。
但是,露西的家庭相当传统,她以前的若乾个男朋友就是因为过不了这一关而败下阵来,她的母亲和兄弟姐妹们会喜欢亚当吗?露西难免有点忐忑不安。 不过事情马上就证明了露西的担心完全是杞人忧天,亚当真是个人见人爱的角色,他几乎没费什么力气就赢得了露西所有家庭成员的好感,包括她的妈妈佩吉、她的两个姐姐劳拉和艾丽丝,就连露西那个叛逆不羁的弟弟大卫也仿佛着了魔般的喜欢上了亚当。这可让露西大大松了一口气。
然而就在亚当对欧文斯一家的影响力日益显着时,每个人也不得不开始面对亚当那日渐显现的并不可爱的一面……



该资源信息参数
  1. Video
  2. ID                                       : 1
  3. Format                                   : AVC
  4. Format/Info                              : Advanced Video Codec
  5. Format profile                           : <a href="/cdn-cgi/l/email-protection" class="__cf_email__" data-cfemail="5e163739361e126a">[email protected]</a>
  6. Format settings                          : CABAC / 4 Ref Frames
  7. Format settings, CABAC                   : Yes
  8. Format settings, Reference frames        : 4 frames
  9. Codec ID                                 : V_MPEG4/ISO/AVC
  10. Duration                                 : 1 h 36 min
  11. Bit rate mode                            : Constant
  12. Bit rate                                 : 10 000 kb/s
  13. Width                                    : 1 920 pixels
  14. Height                                   : 1 080 pixels
  15. Display aspect ratio                     : 16:9
  16. Frame rate mode                          : Constant
  17. Frame rate                               : 23.976 (24000/1001) FPS
  18. Color space                              : YUV
  19. Chroma subsampling                       : 4:2:0
  20. Bit depth                                : 8 bits
  21. Scan type                                : Progressive
  22. Bits/(Pixel*Frame)                       : 0.201
  23. Stream size                              : 6.57 GiB (94%)
  24. Default                                  : Yes
  25. Forced                                   : No
  26. Color range                              : Limited
  27. Color primaries                          : BT.709
  28. Transfer characteristics                 : BT.709
  29. Matrix coefficients                      : BT.709

  30. Audio
  31. ID                                       : 2
  32. Format                                   : AC-3
  33. Format/Info                              : Audio Coding 3
  34. Commercial name                          : Dolby Digital
  35. Codec ID                                 : A_AC3
  36. Duration                                 : 1 h 36 min
  37. Bit rate mode                            : Constant
  38. Bit rate                                 : 384 kb/s
  39. Channel(s)                               : 6 channels
  40. Channel layout                           : L R C LFE Ls Rs
  41. Sampling rate                            : 48.0 kHz
  42. Frame rate                               : 31.250 FPS (1536 SPF)
  43. Bit depth                                : 16 bits
  44. Compression mode                         : Lossy
  45. Stream size                              : 266 MiB (4%)
  46. Language                                 : English
  47. Service kind                             : Complete Main
  48. Default                                  : Yes
  49. Forced                                   : No

  50. Text #1
  51. ID                                       : 4
  52. Format                                   : UTF-8
  53. Codec ID                                 : S_TEXT/UTF8
  54. Codec ID/Info                            : UTF-8 Plain Text
  55. Duration                                 : 1 h 33 min
  56. Bit rate                                 : 78 b/s
  57. Count of elements                        : 1812
  58. Stream size                              : 54.2 KiB (0%)
  59. Language                                 : English
  60. Default                                  : No
  61. Forced                                   : No

  62. Text #2
  63. ID                                       : 5
  64. Format                                   : UTF-8
  65. Codec ID                                 : S_TEXT/UTF8
  66. Codec ID/Info                            : UTF-8 Plain Text
  67. Duration                                 : 1 h 33 min
  68. Bit rate                                 : 81 b/s
  69. Count of elements                        : 1914
  70. Stream size                              : 56.2 KiB (0%)
  71. Title                                    : SDH
  72. Language                                 : English
  73. Default                                  : No
  74. Forced                                   : No
复制代码


精彩剧照




蓝光高清网提示您 点击下方附件名称 马上开始下载



温馨提示:
本站资源优先使用迅雷下载,迅雷会员下载,速度基本可以跑满宽带
如果遇到无资源或者版权问题无法下载,推荐使用115网盘离线下载(点击查看115网盘离线下载教程


  • 该资源需要您回复以后 刷新网页进行下载操作

  • 1、About.Adam.2000.1080p.AMZN.WEBRip.DD5.1.x264-monkee.torrent 35KB 已下载 0 次

加入蓝光高清网VIP会员  无限制下载本站所有资源---点此加入

资源下载、资源播放、字幕使用、无法下载等常见问题---点这里

回复

使用道具 举报

精彩评论1

崛起之峰 发表于 2019-9-11 21:25:39 | 显示全部楼层
真是 收益 匪浅

加入蓝光高清网VIP会员  无限制下载本站所有资源---点此加入

资源下载、资源播放、字幕使用、无法下载等常见问题---点这里

回复

使用道具 举报

懒得打字嘛,点击右侧快捷回复
高级模式
B Color Image Link Quote Code Smilies 上传

本版积分规则

关注0

粉丝0

帖子45744

发布主题
最新电影 论坛
广告位

Archiver手机版蓝光高清网 ( 渝ICP备18006373号-2 )|网站地图

Powered by Discuz! X3.4  © 2001-2013 Comsenz Inc.