[剧情片] 信任之剑 Sword.Of.Trust.2019.1080p.WEB-DL.DD5.1.H264-FGT 3.51GB

[复制链接]
蓝鸟VIP会员 永久VIP 发表于 2019-9-11 21:19:25 | 显示全部楼层 |阅读模式 打印 上一主题 下一主题

马上注册,轻松下载,海量资源,让你轻松玩转社区。

您需要 登录 才可以下载或查看,没有帐号?立即注册

x


译  名 信任之剑
片  名 Sword of Trust
年  代 2019
产  地 美国
类  别 剧情
语  言 英语
上映日期 2019-03-08(西南偏南电影节) / 2019-07-12(美国)
IMDb评分  5.5/10 from 119 users
IMDb链接  http://www.imdb.com/title/tt8484012
豆瓣评分 0/10 from 0 users
豆瓣链接 https://movie.douban.com/subject/30487949/
片  长 88分钟
导  演 琳·谢尔顿 Lynn Shelton
编  剧 琳·谢尔顿 Lynn Shelton / 迈克尔·帕特里克·奥布莱恩 Michael Patrick O"Brien
主  演 马克·马龙 Marc Maron
      乔恩·巴斯 Jon Bass
      麦可拉·沃金丝 Michaela Watkins
      吉莉恩·贝尔 Jillian Bell
      托比·胡斯 Toby Huss
      丹·巴克达尔 Dan Bakkedahl
      琳·谢尔顿 Lynn Shelton
      Timothy Paul
      Whitmer Thomas
      Al Elliott


标  签 美国 | 剧情 | 电影 | 人性 | 2010s

简  介  

  Cynthia and Mary show up to collect Cynthia"s inheritance from her deceased grandfather, the only item she"s received is an antique sword that was believed by her grandfather to be proof that the South won the Civil War.



该资源信息参数
  1. Video
  2. ID                                       : 1
  3. Format                                   : AVC
  4. Format/Info                              : Advanced Video Codec
  5. Format profile                           : <a href="/cdn-cgi/l/email-protection" class="__cf_email__" data-cfemail="ace4c5cbc4ece098">[email protected]</a>
  6. Format settings                          : CABAC / 4 Ref Frames
  7. Format settings, CABAC                   : Yes
  8. Format settings, Reference frames        : 4 frames
  9. Codec ID                                 : V_MPEG4/ISO/AVC
  10. Duration                                 : 1 h 29 min
  11. Bit rate                                 : 5 264 kb/s
  12. Width                                    : 1 920 pixels
  13. Height                                   : 950 pixels
  14. Display aspect ratio                     : 2.021
  15. Frame rate mode                          : Constant
  16. Frame rate                               : 23.976 (23976/1000) FPS
  17. Color space                              : YUV
  18. Chroma subsampling                       : 4:2:0
  19. Bit depth                                : 8 bits
  20. Scan type                                : Progressive
  21. Bits/(Pixel*Frame)                       : 0.120
  22. Stream size                              : 3.27 GiB (93%)
  23. Title                                    : Sword.Of.Trust.2019.1080p.WEB-DL.DD5.1.H264-FGT
  24. Language                                 : English
  25. Default                                  : Yes
  26. Forced                                   : No
  27. Color range                              : Limited
  28. Color primaries                          : BT.709
  29. Transfer characteristics                 : BT.709
  30. Matrix coefficients                      : BT.709

  31. Audio
  32. ID                                       : 2
  33. Format                                   : AC-3
  34. Format/Info                              : Audio Coding 3
  35. Commercial name                          : Dolby Digital
  36. Codec ID                                 : A_AC3
  37. Duration                                 : 1 h 29 min
  38. Bit rate mode                            : Constant
  39. Bit rate                                 : 384 kb/s
  40. Channel(s)                               : 6 channels
  41. Channel layout                           : L R C LFE Ls Rs
  42. Sampling rate                            : 48.0 kHz
  43. Frame rate                               : 31.250 FPS (1536 SPF)
  44. Bit depth                                : 16 bits
  45. Compression mode                         : Lossy
  46. Stream size                              : 245 MiB (7%)
  47. Title                                    : Sword.Of.Trust.2019.1080p.WEB-DL.DD5.1.H264-FGT
  48. Language                                 : English
  49. Service kind                             : Complete Main
  50. Default                                  : Yes
  51. Forced                                   : No

  52. Text
  53. ID                                       : 3
  54. Format                                   : UTF-8
  55. Codec ID                                 : S_TEXT/UTF8
  56. Codec ID/Info                            : UTF-8 Plain Text
  57. Duration                                 : 1 h 28 min
  58. Bit rate                                 : 132 b/s
  59. Count of elements                        : 1733
  60. Stream size                              : 85.7 KiB (0%)
  61. Language                                 : English
  62. Default                                  : Yes
  63. Forced                                   : No

  64. Menu
  65. 00:00:00.000                             : en:1
  66. 00:17:03.231                             : en:2
  67. 00:30:25.407                             : en:3
  68. 00:38:57.334                             : en:4
  69. 00:46:40.922                             : en:5
  70. 00:58:15.116                             : en:6
  71. 01:06:34.824                             : en:7
  72. 01:14:30.299                             : en:8
  73. 01:25:26.121                             : en:9
复制代码


精彩剧照




蓝光高清网提示您 点击下方附件名称 马上开始下载



温馨提示:
本站资源优先使用迅雷下载,迅雷会员下载,速度基本可以跑满宽带
如果遇到无资源或者版权问题无法下载,推荐使用115网盘离线下载(点击查看115网盘离线下载教程


  • 该资源需要您回复以后 刷新网页进行下载操作

  • 1、Sword.Of.Trust.2019.1080p.WEB-DL.DD5.1.H264-FGT.torrent 36KB 已下载 0 次

加入蓝光高清网VIP会员  无限制下载本站所有资源---点此加入

资源下载、资源播放、字幕使用、无法下载等常见问题---点这里

回复

使用道具 举报

懒得打字嘛,点击右侧快捷回复
高级模式
B Color Image Link Quote Code Smilies 上传

本版积分规则

关注0

粉丝0

帖子45736

发布主题
最新电影 论坛
广告位

Archiver手机版蓝光高清网 ( 渝ICP备18006373号-2 )|网站地图

Powered by Discuz! X3.4  © 2001-2013 Comsenz Inc.