[喜剧片] 监管 Supervized.2019.1080p.WEB-DL.DD5.1.H264-FGT 2.99GB

[复制链接]
蓝鸟VIP会员 永久VIP 发表于 7 天前 | 显示全部楼层 |阅读模式 打印 上一主题 下一主题

马上注册,轻松下载,海量资源,让你轻松玩转社区。

您需要 登录 才可以下载或查看,没有帐号?立即注册

x


译  名 监管
片  名 Supervized
年  代 2018
产  地 英国
类  别 喜剧
语  言 英语
上映日期 2018(英国)
IMDb链接http://www.imdb.com/title/tt7302054
豆瓣评分 0/10 from 0 users
豆瓣链接 https://movie.douban.com/subject/30143886/
导  演 斯蒂夫·巴伦 Steve Barron
主  演 汤姆·贝伦杰
      菲奥娜·格拉斯科特 Fiona Glascott


简  介

  随着时间的推移,一个超级英雄退休在家慢慢变老。然而无聊的他准备最后再干一把刺激的事。



该资源信息参数

  1. Video
  2. ID             : 1
  3. Format           : AVC
  4. Format/Info          : Advanced Video Codec
  5. Format profile         : <a href="/cdn-cgi/l/email-protection" class="__cf_email__" data-cfemail="c981a0aea18985fd">[email protected]</a>
  6. Format settings        : CABAC / 5 Ref Frames
  7. Format settings, CABAC       : Yes
  8. Format settings, Reference frames  : 5 frames
  9. Codec ID           : V_MPEG4/ISO/AVC
  10. Duration           : 1 h 27 min
  11. Bit rate           : 4 486 kb/s
  12. Width            : 1 912 pixels
  13. Height           : 792 pixels
  14. Display aspect ratio       : 2.40:1
  15. Frame rate mode        : Constant
  16. Frame rate           : 23.976 FPS
  17. Color space          : YUV
  18. Chroma subsampling       : 4:2:0
  19. Bit depth          : 8 bits
  20. Scan type          : Progressive
  21. Bits/(Pixel*Frame)       : 0.124
  22. Stream size          : 2.75 GiB (92%)
  23. Title            : Supervized.2019.1080p.WEB-DL.DD5.1.H264-FGT
  24. Language           : English
  25. Default            : Yes
  26. Forced           : No
  27. Color range          : Limited
  28. Color primaries        : BT.709
  29. Transfer characteristics     : BT.709
  30. Matrix coefficients        : BT.709

  31. Audio
  32. ID             : 2
  33. Format           : AC-3
  34. Format/Info          : Audio Coding 3
  35. Commercial name        : Dolby Digital
  36. Codec ID           : A_AC3
  37. Duration           : 1 h 27 min
  38. Bit rate mode          : Constant
  39. Bit rate           : 384 kb/s
  40. Channel(s)           : 6 channels
  41. Channel layout         : L R C LFE Ls Rs
  42. Sampling rate          : 48.0 kHz
  43. Frame rate           : 31.250 FPS (1536 SPF)
  44. Bit depth          : 16 bits
  45. Compression mode         : Lossy
  46. Stream size          : 241 MiB (8%)
  47. Title            : Supervized.2019.1080p.WEB-DL.DD5.1.H264-FGT
  48. Language           : English
  49. Service kind         : Complete Main
  50. Default            : Yes
  51. Forced           : No

  52. Text
  53. ID             : 3
  54. Format           : UTF-8
  55. Codec ID           : S_TEXT/UTF8
  56. Codec ID/Info          : UTF-8 Plain Text
  57. Duration           : 1 h 21 min
  58. Bit rate           : 107 b/s
  59. Count of elements        : 1536
  60. Stream size          : 64.7 KiB (0%)
  61. Language           : English
  62. Default            : Yes
  63. Forced           : No

  64. Menu
  65. 00:00:00.000         : en:1
  66. 00:02:05.000         : en:2
  67. 00:13:47.000         : en:3
  68. 00:23:43.000         : en:4
  69. 00:34:20.000         : en:5
  70. 00:45:55.000         : en:6
  71. 00:58:23.000         : en:7
  72. 01:09:17.000         : en:8
  73. 01:20:58.000         : en:9
  74. 01:22:40.000         : en:10
复制代码




精彩剧照



蓝光高清网提示您 点击下方附件名称 马上开始下载



温馨提示:
本站资源优先使用迅雷下载,迅雷会员下载,速度基本可以跑满宽带
如果遇到无资源或者版权问题无法下载,推荐使用115网盘离线下载(点击查看115网盘离线下载教程


  • 该资源需要您回复以后 刷新网页进行下载操作

  • 1、Supervized.2019.1080p.WEB-DL.DD5.1.H264-FGT.torrent 30KB 已下载 0 次

加入蓝光高清网VIP会员  无限制下载本站所有资源---点此加入

资源下载、资源播放、字幕使用、无法下载等常见问题---点这里

回复

使用道具 举报

懒得打字嘛,点击右侧快捷回复
高级模式
B Color Image Link Quote Code Smilies 上传

本版积分规则

关注0

粉丝0

帖子43691

发布主题
最新电影 论坛
广告位

Archiver手机版蓝光高清网 ( 渝ICP备18006373号-2 )|网站地图

Powered by Discuz! X3.4  © 2001-2013 Comsenz Inc.