[剧情片] 九局下半 Bottom.of.the.9th.2019.1080p.WEB-DL.DD5.1.H264-FGT 4.39GB

[复制链接]
蓝鸟VIP会员 永久VIP 发表于 2019-9-11 21:22:06 | 显示全部楼层 |阅读模式 打印 上一主题 下一主题

马上注册,轻松下载,海量资源,让你轻松玩转社区。

您需要 登录 才可以下载或查看,没有帐号?立即注册

x


译  名 九局下半 / Bottom of the 9th / 斯塔诺
片  名 Stano
年  代 2019
产  地 美国
类  别 剧情
语  言 英语
上映日期 2019-07-19(美国)
IMDb评分  3.8/10 from 30 users
IMDb链接  http://www.imdb.com/title/tt1507002
豆瓣评分 0/10 from 0 users
豆瓣链接 https://movie.douban.com/subject/4023251/
导  演 雷蒙德·德·费里塔 Raymond De Felitta
编  剧 Robert Bruzio
主  演 乔·曼根尼罗 Joe Manganiello


标  签 爱情

简  介  

  乔·曼根尼罗有望加盟独立剧情片[斯塔诺](Stano,暂译)。在片中曼根尼罗饰演一位刚刚出狱的罪犯。因为误伤了一名孩子,他不仅断送的自己的棒球生涯,也因此失去了对生命的热爱。而在经历了17年的牢狱之灾后,他将不得不回到曾经的那片是非之地,与曾经的自己做个了断。



该资源信息参数
  1. Video
  2. ID                                       : 1
  3. Format                                   : AVC
  4. Format/Info                              : Advanced Video Codec
  5. Format profile                           : <a href="/cdn-cgi/l/email-protection" class="__cf_email__" data-cfemail="3c74555b547c7008">[email protected]</a>
  6. Format settings                          : CABAC / 4 Ref Frames
  7. Format settings, CABAC                   : Yes
  8. Format settings, Reference frames        : 4 frames
  9. Codec ID                                 : V_MPEG4/ISO/AVC
  10. Duration                                 : 1 h 51 min
  11. Bit rate                                 : 5 262 kb/s
  12. Width                                    : 1 912 pixels
  13. Height                                   : 1 072 pixels
  14. Display aspect ratio                     : 16:9
  15. Frame rate mode                          : Constant
  16. Frame rate                               : 23.976 (24000/1001) FPS
  17. Color space                              : YUV
  18. Chroma subsampling                       : 4:2:0
  19. Bit depth                                : 8 bits
  20. Scan type                                : Progressive
  21. Bits/(Pixel*Frame)                       : 0.107
  22. Stream size                              : 4.09 GiB (93%)
  23. Title                                    : Bottom.of.the.9th.2019.1080p.WEB-DL.DD5.1.H264-FGT
  24. Language                                 : English
  25. Default                                  : Yes
  26. Forced                                   : No
  27. Color range                              : Limited
  28. Color primaries                          : BT.709
  29. Transfer characteristics                 : BT.709
  30. Matrix coefficients                      : BT.709

  31. Audio
  32. ID                                       : 2
  33. Format                                   : AC-3
  34. Format/Info                              : Audio Coding 3
  35. Commercial name                          : Dolby Digital
  36. Codec ID                                 : A_AC3
  37. Duration                                 : 1 h 51 min
  38. Bit rate mode                            : Constant
  39. Bit rate                                 : 384 kb/s
  40. Channel(s)                               : 6 channels
  41. Channel layout                           : L R C LFE Ls Rs
  42. Sampling rate                            : 48.0 kHz
  43. Frame rate                               : 31.250 FPS (1536 SPF)
  44. Bit depth                                : 16 bits
  45. Compression mode                         : Lossy
  46. Stream size                              : 306 MiB (7%)
  47. Title                                    : Bottom.of.the.9th.2019.1080p.WEB-DL.DD5.1.H264-FGT
  48. Language                                 : English
  49. Service kind                             : Complete Main
  50. Default                                  : Yes
  51. Forced                                   : No

  52. Text #1
  53. ID                                       : 3
  54. Format                                   : UTF-8
  55. Codec ID                                 : S_TEXT/UTF8
  56. Codec ID/Info                            : UTF-8 Plain Text
  57. Duration                                 : 1 h 44 min
  58. Bit rate                                 : 59 b/s
  59. Count of elements                        : 1355
  60. Stream size                              : 45.4 KiB (0%)
  61. Language                                 : English
  62. Default                                  : Yes
  63. Forced                                   : No

  64. Text #2
  65. ID                                       : 4
  66. Format                                   : UTF-8
  67. Codec ID                                 : S_TEXT/UTF8
  68. Codec ID/Info                            : UTF-8 Plain Text
  69. Duration                                 : 1 h 46 min
  70. Bit rate                                 : 64 b/s
  71. Count of elements                        : 1516
  72. Stream size                              : 50.0 KiB (0%)
  73. Title                                    : SDH
  74. Language                                 : English
  75. Default                                  : No
  76. Forced                                   : No

  77. Menu
  78. 00:00:00.000                             : en:Chapter 1
  79. 00:08:24.000                             : en:Chapter 2
  80. 00:13:23.000                             : en:Chapter 3
  81. 00:19:35.000                             : en:Chapter 4
  82. 00:28:07.000                             : en:Chapter 5
  83. 00:36:22.000                             : en:Chapter 6
  84. 00:43:00.000                             : en:Chapter 7
  85. 00:51:19.000                             : en:Chapter 8
  86. 00:57:49.000                             : en:Chapter 9
  87. 01:04:00.000                             : en:Chapter 10
  88. 01:11:10.000                             : en:Chapter 11
  89. 01:17:11.000                             : en:Chapter 12
  90. 01:22:09.000                             : en:Chapter 13
  91. 01:30:27.000                             : en:Chapter 14
  92. 01:36:26.000                             : en:Chapter 15
  93. 01:47:09.000                             : en:Chapter 16
复制代码


精彩剧照




蓝光高清网提示您 点击下方附件名称 马上开始下载



温馨提示:
本站资源优先使用迅雷下载,迅雷会员下载,速度基本可以跑满宽带
如果遇到无资源或者版权问题无法下载,推荐使用115网盘离线下载(点击查看115网盘离线下载教程


  • 该资源需要您回复以后 刷新网页进行下载操作

  • 1、Bottom.of.the.9th.2019.1080p.WEB-DL.DD5.1.H264-FGT.torrent 44KB 已下载 0 次

加入蓝光高清网VIP会员  无限制下载本站所有资源---点此加入

资源下载、资源播放、字幕使用、无法下载等常见问题---点这里

回复

使用道具 举报

懒得打字嘛,点击右侧快捷回复
高级模式
B Color Image Link Quote Code Smilies 上传

本版积分规则

关注0

粉丝0

帖子45739

发布主题
最新电影 论坛
广告位

Archiver手机版蓝光高清网 ( 渝ICP备18006373号-2 )|网站地图

Powered by Discuz! X3.4  © 2001-2013 Comsenz Inc.