[奇幻片] 幽灵女孩 Above.the.Shadows.2019.1080p.WEB-DL.DD5.1.H264-FGT 3.85GB

[复制链接]
蓝鸟VIP会员 永久VIP 发表于 2019-9-11 21:22:55 | 显示全部楼层 |阅读模式 打印 上一主题 下一主题

马上注册,轻松下载,海量资源,让你轻松玩转社区。

您需要 登录 才可以下载或查看,没有帐号?立即注册

x


译  名 幽灵女孩 / Shadow Girl / 影子女孩 / 隱形情人(台)
片  名 Above the Shadows
年  代 2019
产  地 美国
类  别 奇幻
IMDb评分  5.6/10 from 30 users
IMDb链接  http://www.imdb.com/title/tt4622682
豆瓣评分 0/10 from 0 users
豆瓣链接 https://movie.douban.com/subject/27046734/
导  演 克劳迪娅·迈克斯 Claudia Myers
编  剧 克劳迪娅·迈克斯 Claudia Myers
主  演 梅根·福克斯 Megan Fox
      奥莉薇·瑟尔比 Olivia Thirlby
      阿兰·里奇森 Alan Ritchson
      玛丽亚·迪齐亚 Maria Dizzia
      吉姆·加菲根 Jim Gaffigan
      蒂托·奥蒂兹 Tito Ortiz


标  签 2019 | 待看

简  介  

  佐莎·马梅特、斯科特·斯比德曼出演奇幻爱情电影[幽灵女孩](Shadow Girl,暂译)。作品由克劳迪娅·迈克斯自编自导。女孩霍莉在其母亲去世后,身体逐渐变得隐形,她作为狗仔摄影记者在阴影中生活了十余年,直到遇见了一个落魄的前MMA综合格斗冠军,而这个男人是唯一能看见她的人。



该资源信息参数
  1. Video
  2. ID                                       : 1
  3. Format                                   : AVC
  4. Format/Info                              : Advanced Video Codec
  5. Format profile                           : <a href="/cdn-cgi/l/email-protection" class="__cf_email__" data-cfemail="5a12333d321a166e">[email protected]</a>
  6. Format settings                          : CABAC / 5 Ref Frames
  7. Format settings, CABAC                   : Yes
  8. Format settings, Reference frames        : 5 frames
  9. Codec ID                                 : V_MPEG4/ISO/AVC
  10. Duration                                 : 1 h 51 min
  11. Bit rate                                 : 4 573 kb/s
  12. Width                                    : 1 920 pixels
  13. Height                                   : 804 pixels
  14. Display aspect ratio                     : 2.40:1
  15. Frame rate mode                          : Constant
  16. Frame rate                               : 23.976 FPS
  17. Color space                              : YUV
  18. Chroma subsampling                       : 4:2:0
  19. Bit depth                                : 8 bits
  20. Scan type                                : Progressive
  21. Bits/(Pixel*Frame)                       : 0.124
  22. Stream size                              : 3.55 GiB (92%)
  23. Title                                    : Above the Shadows.2019.1080p.WEB-DL.DD5.1.H264-FGT
  24. Language                                 : English
  25. Default                                  : Yes
  26. Forced                                   : No
  27. Color range                              : Limited
  28. Color primaries                          : BT.709
  29. Transfer characteristics                 : BT.709
  30. Matrix coefficients                      : BT.709

  31. Audio
  32. ID                                       : 2
  33. Format                                   : AC-3
  34. Format/Info                              : Audio Coding 3
  35. Commercial name                          : Dolby Digital
  36. Codec ID                                 : A_AC3
  37. Duration                                 : 1 h 51 min
  38. Bit rate mode                            : Constant
  39. Bit rate                                 : 384 kb/s
  40. Channel(s)                               : 6 channels
  41. Channel layout                           : L R C LFE Ls Rs
  42. Sampling rate                            : 48.0 kHz
  43. Frame rate                               : 31.250 FPS (1536 SPF)
  44. Bit depth                                : 16 bits
  45. Compression mode                         : Lossy
  46. Stream size                              : 305 MiB (8%)
  47. Title                                    : Above the Shadows.2019.1080p.WEB-DL.DD5.1.H264-FGT
  48. Language                                 : English
  49. Service kind                             : Complete Main
  50. Default                                  : Yes
  51. Forced                                   : No

  52. Text #1
  53. ID                                       : 3
  54. Format                                   : UTF-8
  55. Codec ID                                 : S_TEXT/UTF8
  56. Codec ID/Info                            : UTF-8 Plain Text
  57. Duration                                 : 1 h 44 min
  58. Bit rate                                 : 47 b/s
  59. Count of elements                        : 1059
  60. Stream size                              : 35.9 KiB (0%)
  61. Language                                 : English
  62. Default                                  : Yes
  63. Forced                                   : No

  64. Text #2
  65. ID                                       : 4
  66. Format                                   : UTF-8
  67. Codec ID                                 : S_TEXT/UTF8
  68. Codec ID/Info                            : UTF-8 Plain Text
  69. Duration                                 : 1 h 50 min
  70. Bit rate                                 : 47 b/s
  71. Count of elements                        : 1154
  72. Stream size                              : 38.5 KiB (0%)
  73. Title                                    : SDH
  74. Language                                 : English
  75. Default                                  : No
  76. Forced                                   : No

  77. Menu
  78. 00:00:00.000                             : en:Chapter 1
  79. 00:10:15.615                             : en:Chapter 2
  80. 00:20:23.222                             : en:Chapter 3
  81. 00:31:02.860                             : en:Chapter 4
  82. 00:40:18.414                             : en:Chapter 5
  83. 00:51:20.075                             : en:Chapter 6
  84. 00:59:18.553                             : en:Chapter 7
  85. 01:10:48.241                             : en:Chapter 8
  86. 01:19:56.788                             : en:Chapter 9
  87. 01:29:34.365                             : en:Chapter 10
  88. 01:41:43.093                             : en:Chapter 11
  89. 01:45:05.295                             : en:Chapter 12
复制代码


精彩剧照




蓝光高清网提示您 点击下方附件名称 马上开始下载



温馨提示:
本站资源优先使用迅雷下载,迅雷会员下载,速度基本可以跑满宽带
如果遇到无资源或者版权问题无法下载,推荐使用115网盘离线下载(点击查看115网盘离线下载教程


  • 该资源需要您回复以后 刷新网页进行下载操作

  • 1、Above.the.Shadows.2019.1080p.WEB-DL.DD5.1.H264-FGT.torrent 39KB 已下载 0 次

加入蓝光高清网VIP会员  无限制下载本站所有资源---点此加入

资源下载、资源播放、字幕使用、无法下载等常见问题---点这里

回复

使用道具 举报

懒得打字嘛,点击右侧快捷回复
高级模式
B Color Image Link Quote Code Smilies 上传

本版积分规则

关注0

粉丝0

帖子45747

发布主题
最新电影 论坛
广告位

Archiver手机版蓝光高清网 ( 渝ICP备18006373号-2 )|网站地图

Powered by Discuz! X3.4  © 2001-2013 Comsenz Inc.