[科幻片] 冲向天外天 Explorers.1985.720p.AMZN.WEBRip.DDP5.1.x264-KamiKaze 5.06GB

[复制链接]
蓝鸟VIP会员 永久VIP 发表于 2019-9-11 21:24:02 | 显示全部楼层 |阅读模式 打印 上一主题 下一主题

马上注册,轻松下载,海量资源,让你轻松玩转社区。

您需要 登录 才可以下载或查看,没有帐号?立即注册

x


译  名 冲向天外天
片  名 Explorers
年  代 1985
产  地 美国
类  别 科幻 / 奇幻 / 冒险
语  言 英语 / 德语
上映日期 1985-07-12
IMDb评分  6.6/10 from 17973 users
IMDb链接  http://www.imdb.com/title/tt0089114
豆瓣评分 6.8/10 from 233 users
豆瓣链接 https://movie.douban.com/subject/1302528/
片  长 109 分钟
导  演 乔·丹特 Joe Dante
编  剧 Eric Luke
主  演 伊桑·霍克 Ethan Hawke
      瑞凡·菲尼克斯 River Phoenix
      Jason Presson


标  签 RiverPhoenix | 科幻 | 美国 | EthanHawke | 儿童 | 1985 | 美国电影 | 伊桑·霍克

简  介  

  宾克蓝道是一个平凡的邻家少年,因为一场奇异的梦境而改变了他和另外两名少男(伍夫甘格、伍德斯)的一生、三名少年对外太空皆存有幻想与探险的渴望。当他们正在自家后院中著手探险的筹备工作时,一场出奇不意的事件就此展开,因为在遥远深邃的外太空中有个人早在那儿呼唤著,等待著他们...



该资源信息参数
  1. Video
  2. ID                                       : 1
  3. Format                                   : AVC
  4. Format/Info                              : Advanced Video Codec
  5. Format profile                           : <a href="/cdn-cgi/l/email-protection" class="__cf_email__" data-cfemail="6028090708202c534e51">[email protected]</a>
  6. Format settings                          : CABAC / 4 Ref Frames
  7. Format settings, CABAC                   : Yes
  8. Format settings, Reference frames        : 4 frames
  9. Format settings, GOP                     : M=4, N=48
  10. Codec ID                                 : V_MPEG4/ISO/AVC
  11. Duration                                 : 1 h 49 min
  12. Bit rate mode                            : Constant
  13. Bit rate                                 : 6 000 kb/s
  14. Width                                    : 1 280 pixels
  15. Height                                   : 720 pixels
  16. Display aspect ratio                     : 16:9
  17. Frame rate mode                          : Constant
  18. Frame rate                               : 23.976 (24000/1001) FPS
  19. Color space                              : YUV
  20. Chroma subsampling                       : 4:2:0
  21. Bit depth                                : 8 bits
  22. Scan type                                : Progressive
  23. Bits/(Pixel*Frame)                       : 0.272
  24. Stream size                              : 4.57 GiB (90%)
  25. Language                                 : English
  26. Default                                  : Yes
  27. Forced                                   : No
  28. Color range                              : Limited
  29. Color primaries                          : BT.709
  30. Transfer characteristics                 : BT.709
  31. Matrix coefficients                      : BT.709

  32. Audio
  33. ID                                       : 2
  34. Format                                   : E-AC-3
  35. Format/Info                              : Enhanced AC-3
  36. Commercial name                          : Dolby Digital Plus
  37. Codec ID                                 : A_EAC3
  38. Duration                                 : 1 h 49 min
  39. Bit rate mode                            : Constant
  40. Bit rate                                 : 640 kb/s
  41. Channel(s)                               : 6 channels
  42. Channel layout                           : L R C LFE Ls Rs
  43. Sampling rate                            : 48.0 kHz
  44. Frame rate                               : 31.250 FPS (1536 SPF)
  45. Compression mode                         : Lossy
  46. Stream size                              : 500 MiB (10%)
  47. Language                                 : English
  48. Service kind                             : Complete Main
  49. Default                                  : Yes
  50. Forced                                   : No

  51. Text
  52. ID                                       : 3
  53. Format                                   : UTF-8
  54. Codec ID                                 : S_TEXT/UTF8
  55. Codec ID/Info                            : UTF-8 Plain Text
  56. Duration                                 : 1 h 48 min
  57. Bit rate                                 : 58 b/s
  58. Count of elements                        : 1811
  59. Stream size                              : 46.3 KiB (0%)
  60. Title                                    : SDH
  61. Language                                 : English
  62. Default                                  : Yes
  63. Forced                                   : No
复制代码


精彩剧照




蓝光高清网提示您 点击下方附件名称 马上开始下载



温馨提示:
本站资源优先使用迅雷下载,迅雷会员下载,速度基本可以跑满宽带
如果遇到无资源或者版权问题无法下载,推荐使用115网盘离线下载(点击查看115网盘离线下载教程


  • 该资源需要您回复以后 刷新网页进行下载操作

  • 1、Explorers.1985.720p.AMZN.WEBRip.DDP5.1.x264-KamiKaze.torrent 26KB 已下载 0 次

加入蓝光高清网VIP会员  无限制下载本站所有资源---点此加入

资源下载、资源播放、字幕使用、无法下载等常见问题---点这里

回复

使用道具 举报

懒得打字嘛,点击右侧快捷回复
高级模式
B Color Image Link Quote Code Smilies 上传

本版积分规则

关注0

粉丝0

帖子45738

发布主题
最新电影 论坛
广告位

Archiver手机版蓝光高清网 ( 渝ICP备18006373号-2 )|网站地图

Powered by Discuz! X3.4  © 2001-2013 Comsenz Inc.